Bend of the River (Anthony Mann, 1952) HQ 720p Dual SE

Puntuación
8,8/10
5 votos

Horizontes Lejanos

Moderador: mifune

Responder
Avatar de Usuario
FrOnkY
 
Mensajes: 917
Registrado: 16 Oct 2012 15:02
Agradecimiento recibido: 1352 veces

Estados Unidos Bend of the River (Anthony Mann, 1952) HQ 720p Dual SE

Mensaje por FrOnkY » 04 Dic 2014 15:19

Imagen

HQMann

IMDb

GUIÓN Borden Chase (William Gulick)
MÚSICA Hans J. Salter
FOTOGRAFÍA Irving Glassberg
REPARTO
James Stewart, Arthur Kennedy, Rock Hudson, Julia Adams, Lori Nelson, Harry Morgan,
Jay C. Flippen, Chubby Johnson, Stepin Fetchit, Howard Petrie, Frances Bavier, Jack Lambert

PRODUCCIÓN Universal International Pictures (UI)
UBICACIÓN Entre Winchesters y Colorados

Código: Seleccionar todo

Bend.Of.The.River.(Horizontes.Lejanos).1952.HQ.720p.x264.AC3.[FrOnkY].mkv

Format                                   : Matroska
Format version                           : Version 4 / Version 2
File size                                : 3.84 GiB
Duration                                 : 1h 31mn
Overall bit rate                         : 6 036 Kbps
Writing application                      : mkvmerge v6.9.1 ('Blue Panther') 32bit built on Apr 18 2014 18:15:44
Writing library                          : libebml v1.3.0 + libmatroska v1.4.1
Attachements                             : BendOfTheRiver1.jpg / BendOfTheRiver2.jpg / BendOfTheRiver3.jpg / BendOfTheRiver4.jpg / BendOfTheRiver5.jpg / HorizontesLejanos.jpg

Video
ID                                       : 1
Format                                   : AVC
Format/Info                              : Advanced Video Codec
Format profile                           : High@L4.1
Format settings, CABAC                   : Yes
Format settings, ReFrames                : 11 frames
Codec ID                                 : V_MPEG4/ISO/AVC
Duration                                 : 1h 31mn
Bit rate                                 : 5 678 Kbps
Width                                    : 988 pixels
Height                                   : 720 pixels
Display aspect ratio                     : 1.372
Frame rate mode                          : Constant
Frame rate                               : 23.976 fps
Color space                              : YUV
Chroma subsampling                       : 4:2:0
Bit depth                                : 8 bits
Scan type                                : Progressive
Bits/(Pixel*Frame)                       : 0.333
Stream size                              : 3.52 GiB (92%)
Writing library                          : x264 core 142 r2479 dd79a61
Language                                 : English
Default                                  : Yes
Forced                                   : No

Audio #1
ID                                       : 2
Format                                   : AC-3
Format/Info                              : Audio Coding 3
Mode extension                           : CM (complete main)
Format settings, Endianness              : Big
Codec ID                                 : A_AC3
Duration                                 : 1h 31mn
Bit rate mode                            : Constant
Bit rate                                 : 192 Kbps
Channel(s)                               : 2 channels
Channel positions                        : Front: L R
Sampling rate                            : 48.0 KHz
Bit depth                                : 16 bits
Stream size                              : 125 MiB (3%)
Language                                 : Spanish
Default                                  : Yes
Forced                                   : No

Audio #2
ID                                       : 3
Format                                   : AC-3
Format/Info                              : Audio Coding 3
Mode extension                           : CM (complete main)
Format settings, Endianness              : Big
Codec ID                                 : A_AC3
Duration                                 : 1h 31mn
Bit rate mode                            : Constant
Bit rate                                 : 192 Kbps
Channel(s)                               : 2 channels
Channel positions                        : Front: L R
Sampling rate                            : 48.0 KHz
Bit depth                                : 16 bits
Stream size                              : 125 MiB (3%)
Language                                 : English
Default                                  : No
Forced                                   : No

Text #1
ID                                       : 4
Format                                   : UTF-8
Codec ID                                 : S_TEXT/UTF8
Codec ID/Info                            : UTF-8 Plain Text
Title                                    : for
Language                                 : Spanish
Default                                  : Yes
Forced                                   : No

Text #2
ID                                       : 5
Format                                   : UTF-8
Codec ID                                 : S_TEXT/UTF8
Codec ID/Info                            : UTF-8 Plain Text
Language                                 : Spanish
Default                                  : No
Forced                                   : No

Text #3
ID                                       : 6
Format                                   : UTF-8
Codec ID                                 : S_TEXT/UTF8
Codec ID/Info                            : UTF-8 Plain Text
Language                                 : English
Default                                  : No
Forced                                   : No

Text #4
ID                                       : 7
Format                                   : UTF-8
Codec ID                                 : S_TEXT/UTF8
Codec ID/Info                            : UTF-8 Plain Text
Language                                 : French
Default                                  : No
Forced                                   : No

Text #5
ID                                       : 8
Format                                   : UTF-8
Codec ID                                 : S_TEXT/UTF8
Codec ID/Info                            : UTF-8 Plain Text
Language                                 : Portuguese
Default                                  : No
Forced                                   : No

Menu
00:00:00.000                             : en:Chapter 01
00:01:25.080                             : en:Chapter 02
00:04:37.360                             : en:Chapter 03
00:10:05.180                             : en:Chapter 04
00:16:25.100                             : en:Chapter 05
00:19:59.260                             : en:Chapter 06
00:27:46.220                             : en:Chapter 07
00:29:33.040                             : en:Chapter 08
00:34:09.160                             : en:Chapter 09
00:36:07.840                             : en:Chapter 10
00:38:47.240                             : en:Chapter 11
00:46:29.680                             : en:Chapter 12
00:52:49.480                             : en:Chapter 13
00:56:14.640                             : en:Chapter 14
00:57:36.120                             : en:Chapter 15
01:01:58.200                             : en:Chapter 16
01:10:22.280                             : en:Chapter 17
01:15:34.680                             : en:Chapter 18
01:20:27.320                             : en:Chapter 19
01:28:15.040                             : en:Chapter 20
Imagen

eD2K link Bend.Of.The.River.(Horizontes.Lejanos).1952.HQ.720p.x264.AC3.[FrOnkY].mkv [3.84 Gb] 

Imagen
Imagen
Imagen

Avatar de Usuario
PREACHER
 
Mensajes: 3955
Registrado: 16 Oct 2012 15:26
Agradecimiento recibido: 3159 veces

Re: Bend of the River (Anthony Mann, 1952) HQ 720p Dual SE

Mensaje por PREACHER » 04 Dic 2014 16:24

Qué belleza, FrOnkY. :aplauso:

Avatar de Usuario
FrOnkY
 
Mensajes: 917
Registrado: 16 Oct 2012 15:02
Agradecimiento recibido: 1352 veces

Re: Bend of the River (Anthony Mann, 1952) HQ 720p Dual SE

Mensaje por FrOnkY » 04 Dic 2014 16:36

Tú también, guapetón
Imagen
Imagen

Avatar de Usuario
victor1949
 
Mensajes: 1162
Registrado: 17 Oct 2012 08:13
Ubicación: Palamós / Baix Empodá
Agradecido : 107 veces
Agradecimiento recibido: 174 veces

Re: Bend of the River (Anthony Mann, 1952) HQ 720p Dual SE

Mensaje por victor1949 » 04 Dic 2014 16:41

Muchísimas gracias, FrOnkY.

Avatar de Usuario
PREACHER
 
Mensajes: 3955
Registrado: 16 Oct 2012 15:26
Agradecimiento recibido: 3159 veces

Re: Bend of the River (Anthony Mann, 1952) HQ 720p Dual SE

Mensaje por PREACHER » 04 Dic 2014 16:47

FrOnkY escribió:Tú también, guapetón
:sonrojo:

jail
 
Mensajes: 6275
Registrado: 18 Oct 2012 15:34
Agradecido : 6875 veces
Agradecimiento recibido: 1953 veces

Re: Bend of the River (Anthony Mann, 1952) HQ 720p Dual SE

Mensaje por jail » 04 Dic 2014 17:00

Gracias, Fronky.
Se te echaba en falta, monstruo.

Avatar de Usuario
gatatitania
 
Mensajes: 5759
Registrado: 16 Oct 2012 18:27
Ubicación: Gatatitania es un gato hambriento, superviviente del planeta gatatitania...
Agradecido : 3103 veces
Agradecimiento recibido: 1830 veces

Re: Bend of the River (Anthony Mann, 1952) HQ 720p Dual SE

Mensaje por gatatitania » 04 Dic 2014 18:00

¡Sin palabras, Fronky! :amo: :amo: :amo:

Avatar de Usuario
lluis600
 
Mensajes: 949
Registrado: 16 Oct 2012 19:39
Agradecido : 1721 veces
Agradecimiento recibido: 22 veces

Re: Bend of the River (Anthony Mann, 1952) HQ 720p Dual SE

Mensaje por lluis600 » 04 Dic 2014 20:03

Gracias por la aportación, FrOnkY :genial:

Avatar de Usuario
janca
 
Mensajes: 2605
Registrado: 16 Oct 2012 16:39
Agradecido : 9946 veces
Agradecimiento recibido: 152 veces

Re: Bend of the River (Anthony Mann, 1952) HQ 720p Dual SE

Mensaje por janca » 04 Dic 2014 20:17

Todo un clásico, espero que con el dobli clasico. Gracias Fronky

Avatar de Usuario
tuscarola
 
Mensajes: 2724
Registrado: 25 Dic 2012 20:38
Ubicación: En el Tarragonés
Agradecido : 933 veces
Agradecimiento recibido: 1189 veces

Re: Bend of the River (Anthony Mann, 1952) HQ 720p Dual SE

Mensaje por tuscarola » 04 Dic 2014 21:56

Gracias Fronky. Esos paisajes de Mann en este formato...... :genial: :genial:
ImagenImagen
Imagen

Responder

Volver a “Largos Clásicos”