Shenandoah (Andrew V. McLaglen, 1965) HDTV 720p Dual SE

Puntuación
6,5/10
4 votos

El valle de la violencia

Moderador: Monsieur Lange

Responder
Avatar de Usuario
Dardo
 
Mensajes: 770
Registrado: 16 Oct 2012, 16:16
Ubicación: Entre encinas y dolomías
Agradecido : 441 veces
Agradecimiento recibido: 2377 veces

Estados Unidos Shenandoah (Andrew V. McLaglen, 1965) HDTV 720p Dual SE

Mensaje por Dardo » 30 Mar 2013, 04:13

Shenandoah
"El valle de la violencia"
(Andrew V. McLaglen, 1965)

Imagen
IMDB
Año de producción: 1965
País: Imagen
Dirección: Andrew V. McLaglen
Intérpretes: James Stewart, Doug McClure, Glenn Corbett, Patrick Wayne,
Katharine Ross, Rosemary Forsyth, Phillip Alford, Paul Fix, James Best, George Kennedy
Guión: James Lee Barrett
Música: Frank Skinner
Fotografía: William Clothier (AKA William H. Clothier)
Duración: 105 minutos.
Productora: Universal Pictures
Premios: 1965: Nominada al Oscar: Mejor sonido
Género: Western | Guerra de Secesión


Sinopsis: Guerra de Secesión (1861-1865). Charlie Anderson, viudo y padre de familia numerosa, posee una granja en Virginia. Siendo contrario a la esclavitud, está firmemente decidido a mantenerse al margen de la guerra civil, a pesar de las presiones que soporta, incluso por parte de algunos de sus hijos. Filmaffinity


Comentario: El protagonista de la película es un granjero acaudalado y viudo, cabeza de una familia numerosa, que mantiene el firme propósito de permanecer al margen de la guerra civil que padece su país, porque no le gusta la escavitud y detesta la guerra. La sucesión de acontecimientos que se verá obligado a vivir le afectará más de lo que es capaz de soportar. Se refugiará entonces en el recuerdo de su esposa y de los hijos que ha perdido, ante los que se justificará para, de ese modo, justificarse ante sí mismo. El soberbio monólogo de James Stewart en el camposanto junto a los restos de los suyos constituye posiblemente el punto culminante de la película. La dirección a cargo del experimentado Andrew V. McLaglen consigue aprovechar la fuerza de un guión escrito por James Lee Barrett con acierto. En él se incluyen algunos recursos cómicos y algunas concesiones al sentimentalismo, como corresponde a una obra de la época crepuscular del western. La película es entretenida, reclama la atención del espectador y le deleita con un desarrollo de la acción bien conducido, que hace uso de referencias variadas (casi todas las propias del género) y que cuenta con una interpretación de James Stewart seria y muy digna. La descripción sin estridencias de los desastres de la guerra que contiene la segunda parte de la película resulta emocionante y convincente. Miquel en filmaffinity
Imagen
Detalles del Ripeo
@ Vídeo: Ripeo hecho utilizando de fuente una emisión HDTV. Como suele ser habitual en algunas de estas fuentes HD lucen una paleta de colores algo artificial con tendencia a lo rojizo de ahí que la he corregido buscando un equilibrio que entiendo como más natural. Respecto a la edición en DVD mejora en definición, al margen de una mayor resolución y demás, por lo que entiendo que está justificado realizar y compartir este ripeo 720p.

Os dejo una comparativa:

DVD PAL Anamórfico
Imagen

HDTV que circula por la red
Imagen

HDTV 720p "Restored Cañí"
Imagen


@ Audio: He cambiado el audio ACC que venía con la fuente HDTV por un AC3 a 192 sacado del DVD.Para el doblaje he utilizado el del DVD PAL sincronizándolo para este ripeo.

@ Subtítulos: Subtítulos en Español e Inglés son los que en su día compartió Marc27 para su ripeo del DVD PAL, sincronizados para este HDTV. Asi que muchas gracias ya que siempre evita uno el tener que extraerlos y repasarlos. Existen otros del DVD NTSC de Codres pero que no he utilizado.

Datos Técnicos

Código: Seleccionar todo

General
Complete name                            : Shenandoah [El Valle de la Violencia, 1965] HDTV 720p [Eng&Spa] Subs [Eng&Spa] [DivXClásico.com] .mkv
Format                                   : Matroska
Format version                           : Version 2
File size                                : 2.91 GiB
Duration                                 : 1h 45mn
Overall bit rate                         : 3 960 Kbps
Encoded date                             : UTC 2013-03-28 16:13:02
Writing application                      : mkvmerge v4.0.0 ('The Stars were mine') built on Jun  5 2010 17:44:09
Writing library                          : libebml v1.0.0 + libmatroska v1.0.0

Video
ID                                       : 1
Format                                   : AVC
Format/Info                              : Advanced Video Codec
Format profile                           : High@L4.1
Format settings, CABAC                   : Yes
Format settings, ReFrames                : 9 frames
Codec ID                                 : V_MPEG4/ISO/AVC
Duration                                 : 1h 45mn
Bit rate                                 : 3 497 Kbps
Width                                    : 1 280 pixels
Height                                   : 688 pixels
Display aspect ratio                     : 1.860
Frame rate                               : 23.976 fps
Color space                              : YUV
Chroma subsampling                       : 4:2:0
Bit depth                                : 8 bits
Scan type                                : Progressive
Bits/(Pixel*Frame)                       : 0.166
Stream size                              : 2.57 GiB (88%)
Writing library                          : x264 core 130 r2273 b3065e6
Encoding settings                        : cabac=1 / ref=9 / deblock=1:-1:-1 / analyse=0x3:0x133 / me=umh / subme=10 / psy=1 / psy_rd=1.00:0.15 / mixed_ref=1 / me_range=24 / chroma_me=1 / trellis=2 / 8x8dct=1 / cqm=0 / deadzone=21,11 / fast_pskip=1 / chroma_qp_offset=-3 / threads=3 / lookahead_threads=1 / sliced_threads=0 / nr=0 / decimate=1 / interlaced=0 / bluray_compat=0 / constrained_intra=0 / bframes=8 / b_pyramid=2 / b_adapt=2 / b_bias=0 / direct=3 / weightb=1 / open_gop=0 / weightp=2 / keyint=250 / keyint_min=23 / scenecut=40 / intra_refresh=0 / rc_lookahead=60 / rc=crf / mbtree=1 / qcomp=0.60 / qpmin=0 / qpmax=69 / qpstep=4 / ip_ratio=1.40 / aq=1:1.00
Language                                 : English
Default                                  : No
Forced                                   : No

Audio #1
ID                                       : 2
Format                                   : AC-3
Format/Info                              : Audio Coding 3
Mode extension                           : CM (complete main)
Codec ID                                 : A_AC3
Duration                                 : 1h 45mn
Bit rate mode                            : Constant
Bit rate                                 : 192 Kbps
Channel(s)                               : 2 channels
Channel positions                        : Front: L R
Sampling rate                            : 48.0 KHz
Bit depth                                : 16 bits
Compression mode                         : Lossy
Delay relative to video                  : 1s 100ms
Stream size                              : 145 MiB (5%)
Language                                 : English
Default                                  : No
Forced                                   : No

Audio #2
ID                                       : 3
Format                                   : AC-3
Format/Info                              : Audio Coding 3
Mode extension                           : CM (complete main)
Codec ID                                 : A_AC3
Duration                                 : 1h 45mn
Bit rate mode                            : Constant
Bit rate                                 : 192 Kbps
Channel(s)                               : 2 channels
Channel positions                        : Front: L R
Sampling rate                            : 48.0 KHz
Bit depth                                : 16 bits
Compression mode                         : Lossy
Delay relative to video                  : 1s 100ms
Stream size                              : 145 MiB (5%)
Language                                 : Spanish
Default                                  : No
Forced                                   : No

Text #1
ID                                       : 4
Format                                   : UTF-8
Codec ID                                 : S_TEXT/UTF8
Codec ID/Info                            : UTF-8 Plain Text
Language                                 : Spanish
Default                                  : Yes
Forced                                   : No

Text #2
ID                                       : 5
Format                                   : UTF-8
Codec ID                                 : S_TEXT/UTF8
Codec ID/Info                            : UTF-8 Plain Text
Language                                 : English
Default                                  : No
Forced                                   : No
Capturas

Imagen

Imagen

Imagen

Imagen

Imagen

Imagen

Imagen

Imagen

Imagen

Enlaces
@@ Subtítulos en Español e Inglés dentro del mkv.
"Si queremos que todo siga como está, es necesario que todo cambie".
Burt Lancaster (El Gatopardo)

ciberyago
 
Mensajes: 2423
Registrado: 20 Oct 2012, 07:26
Agradecimiento recibido: 380 veces

Re: Shenandoah (Andrew V. McLaglen, 1965) HDTV 720p Dual SE

Mensaje por ciberyago » 30 Mar 2013, 05:43

Muchas gracias Dardo!

Avatar de Usuario
janca
 
Mensajes: 2591
Registrado: 16 Oct 2012, 16:39
Agradecido : 8484 veces
Agradecimiento recibido: 135 veces

Re: Shenandoah (Andrew V. McLaglen, 1965) HDTV 720p Dual SE

Mensaje por janca » 30 Mar 2013, 07:42

Gracias Dardo

Avatar de Usuario
flechaste
 
Mensajes: 144
Registrado: 17 Oct 2012, 11:01
Agradecimiento recibido: 8 veces

Re: Shenandoah (Andrew V. McLaglen, 1965) HDTV 720p Dual SE

Mensaje por flechaste » 30 Mar 2013, 10:17

Muy agradecido, dardo.

richardvogue
 
Mensajes: 24
Registrado: 27 Dic 2012, 18:40
Agradecimiento recibido: 1 vez

Re: Shenandoah (Andrew V. McLaglen, 1965) HDTV 720p Dual SE

Mensaje por richardvogue » 30 Mar 2013, 14:54

El cartel español:


Imagen

Y tambien existe un musical de Broadway basado en la pelicula:


http://www.ci.port-washington.wi.us/sum ... /Notes.htm

Avatar de Usuario
Monsieur Lange
 
Mensajes: 4911
Registrado: 13 Sep 2012, 19:39
Ubicación: Cruzando las dunas
Agradecido : 1766 veces
Agradecimiento recibido: 1802 veces

Re: Shenandoah (Andrew V. McLaglen, 1965) HDTV 720p Dual SE

Mensaje por Monsieur Lange » 31 Mar 2013, 00:20

Dardo, me la bajo que no la conocía. Además si anda jimi estuar por el medio pues mejor :hi:
"La crítica... esa forma de autoridad que se ha especializado en cuestionar toda forma de autoridad"
Didi-Huberman leyendo a Adorno

Spanish Jhonny
 
Mensajes: 132
Registrado: 17 Oct 2012, 01:50
Agradecido : 419 veces
Agradecimiento recibido: 39 veces

Re: Shenandoah (Andrew V. McLaglen, 1965) HDTV 720p Dual SE

Mensaje por Spanish Jhonny » 31 Mar 2013, 09:39

Muchas gracias Dardo

Avatar de Usuario
JGUTII
 
Mensajes: 1627
Registrado: 19 Oct 2012, 05:57
Ubicación: Ciudad del Betis
Agradecido : 5004 veces
Agradecimiento recibido: 120 veces

Re: Shenandoah (Andrew V. McLaglen, 1965) HDTV 720p Dual SE

Mensaje por JGUTII » 01 Abr 2013, 20:32

Muchas gracias, Dardo. :hi:
Imagen

Avatar de Usuario
tonapar1
 
Mensajes: 4860
Registrado: 16 Oct 2012, 20:19
Agradecido : 1147 veces
Agradecimiento recibido: 1560 veces

Re: Shenandoah (Andrew V. McLaglen, 1965) HDTV 720p Dual SE

Mensaje por tonapar1 » 03 Sep 2015, 20:53

Muchas gracias por el ripeo, dardo. Un saludo

Responder

Volver a “Largos Modernos”