McLintock! (Andrew V. McLaglen, 1963) BDRip 720p Cuatrial SE-I

El gran MacLintock (Doblaje Cines 1964/DVD 2007/DVD 2009)

Ripeos nuevos y/o antiguos, de pelis ya posteadas.

Moderador: mifune

Reglas del Foro
Las puntuaciones están desactivadas en este subforo. Para puntuar debéis ir a cada hilo inicial en sus respectivos foros. Disculpad las molestias.
Responder
Avatar de Usuario
DCINE
 
Mensajes: 1947
Registrado: 30 Jul 2016 20:09
Agradecido : 799 veces
Agradecimiento recibido: 5437 veces

Estados Unidos McLintock! (Andrew V. McLaglen, 1963) BDRip 720p Cuatrial SE-I

Mensaje por DCINE » 15 Jun 2024 08:09

Hilo anterior
El gran MacLintock
(McLintock!)

1963

Imagen




DIRECTOR: Andrew V. McLaglen
PRODUCTORA: United Artists
GUIÓN: James Edward Grant
MÚSICA: Frank De Vol
FOTOGRAFÍA: William H. Clothier

Imagen

ARGUMENTO El señor McLintock (John Wayne), un gran terrateniente gruñón pero generoso, recibe la visita de su esposa (Maureen O'Hara), una mujer de fuerte temperamento, que se fue a vivir a Nueva York, porque no podía soportar el estilo de vida de su marido. (FILMAFFINITY) IMDB: http://www.imdb.com/title/tt0057298/

ImagenImagenImagen
ImagenImagenImagen
ImagenImagen



Reparto: John Wayne, Maureen O'Hara, Yvonne De Carlo, Patrick Wayne, Jack Kruschen, Stefanie Powers, Chill Wills, Jerry Van Dyke, Edgar Buchanan, Strother Martin, Bruce Cabot, Perry Lopez, Gordon Jones, Robert Lowery, Edward Faulkner, Hank Worden, Michael Pate, Mari Blanchard, Leo Gordon, Chuck Roberson, Bob Steele, Aissa Wayne, Big John Hamilton.


Datos técnicos

Video: Ripeo de DON.

Audios:

V.O. (Inglés): En AC-3

Doblajes:

Español: Los tres doblajes que hay

El primero, para su estreno en cines de 1964. De una de las ediciones en DVD facilitado por DannyKayeFDob añadiendo algunas frases que faltaban de otro audio de otras de las ediciones en DVD sacado de un ripeo que tenía bajado del emule para intentar completarlo. Aun así, contiene un pequeño fragmento con el doblaje de 2007 hacia el min 40.

El segundo, realizado para el DVD de Paramount lanzado en 2007. Del ripeo de Marc27.

El tercero, realizado para alguna edición en DVD lanzada sobre 2009. De una copia subida a Youtube. Este ya ni debería incluirlo por lo siguiente, se trata de un redoblaje parcial hecho en base al la copia restaurada que salió en 2007 donde solamente doblaron a los personajes importantes, siendo el resto del audio sacado del doblaje original manipulando el tono (unas veces suenan muy agudas las voces y en otras suenan muy graves) para que no se noten los cambios, pero el resultado final es cutre y chapucero. Aun así, tuve que añadirle algunos tramos con el doblaje de 2007 porque los mismos fueron cortados adrede, lo que empeora aun más el resultado. En fin, para el que tenga curiosidad, ahí lo dejo.


Subtítulos:
En español del emule compartidos por Marc27 e ingleses ya incluidos.

Código: Seleccionar todo

General:
Complete name                    : 1963 El gran MacLintock (McLintock!) (McLaglen) BDRip 720p (Spa (Doblaje Cines 1964 - DVD 2007 - DVD 2009)-Eng) SE-I by DON-DCINE.mkv
Format                           : Matroska
Format version                   : Version 4 / Version 2
File size                        : 5.80 GiB
Duration                         : 2h 7mn
Overall bit rate                 : 6 524 Kbps
Movie name                       : 1963 El gran MacLintock (McLintock!) (Andrew V. McLaglen, 1963) BDRip 720p (Spa (Doblaje Cines 1964/Doblaje DVD 2007/Doblaje DVD 2009)-Eng) SE-I by DON-DCINE.mkv
Encoded date                     : UTC 2023-10-26 11:00:06
Writing application              : mkvmerge v7.1.0 ('Good Love') 32bit built on Jul 27 2014 12:59:18
Writing library                  : libebml v1.3.0 + libmatroska v1.4.1
DURATION                         : 02:06:15.627000000
NUMBER_OF_FRAMES                 : 1797
NUMBER_OF_BYTES                  : 70501
_STATISTICS_WRITING_APP          : mkvmerge v7.1.0 ('Good Love') 32bit built on Jul 27 2014 12:59:18
_STATISTICS_WRITING_DATE_UTC     : 2023-10-26 11:00:06
_STATISTICS_TAGS                 : BPS DURATION NUMBER_OF_FRAMES NUMBER_OF_BYTES
Attachment                       : Yes

Video
ID                               : 1
Format                           : AVC
Format/Info                      : Advanced Video Codec
Format profile                   : High@L4.1
Format settings, CABAC           : Yes
Format settings, ReFrames        : 12 frames
Codec ID                         : V_MPEG4/ISO/AVC
Duration                         : 2h 7mn
Bit rate                         : 5 627 Kbps
Width                            : 1 280 pixels
Height                           : 544 pixels
Display aspect ratio             : 2.35:1
Frame rate                       : 23.976 fps
Color space                      : YUV
Chroma subsampling               : 4:2:0
Bit depth                        : 8 bits
Scan type                        : Progressive
Bits/(Pixel*Frame)               : 0.337
Stream size                      : 5.00 GiB (86%)
Writing library                  : x264 core 155 r2901 7d0ff22
Encoding settings                : cabac=1 / ref=12 / deblock=1:-1:-1 / analyse=0x3:0x133 / me=umh / subme=10 / psy=1 / psy_rd=1.00:0.15 / mixed_ref=1 / me_range=24 / chroma_me=1 / trellis=2 / 8x8dct=1 / cqm=0 / deadzone=21,11 / fast_pskip=1 / chroma_qp_offset=-3 / threads=12 / lookahead_threads=2 / sliced_threads=0 / nr=0 / decimate=1 / interlaced=0 / bluray_compat=0 / constrained_intra=0 / bframes=8 / b_pyramid=2 / b_adapt=2 / b_bias=0 / direct=3 / weightb=1 / open_gop=0 / weightp=2 / keyint=240 / keyint_min=23 / scenecut=40 / intra_refresh=0 / rc_lookahead=60 / rc=crf / mbtree=1 / crf=19.0 / qcomp=0.60 / qpmin=0 / qpmax=69 / qpstep=4 / vbv_maxrate=62500 / vbv_bufsize=78125 / crf_max=0.0 / nal_hrd=none / filler=0 / ip_ratio=1.40 / aq=1:1.00
Default                          : Yes
Forced                           : No

Audio #1
ID                               : 2
Format                           : AC-3
Format/Info                      : Audio Coding 3
Mode extension                   : CM (complete main)
Codec ID                         : A_AC3
Duration                         : 2h 7mn
Bit rate mode                    : Constant
Bit rate                         : 192 Kbps
Channel(s)                       : 1 channel
Channel positions                : Front: C
Sampling rate                    : 48.0 KHz
Bit depth                        : 16 bits
Compression mode                 : Lossy
Stream size                      : 175 MiB (3%)
Title                            : Doblaje Cines 1964 (by DannyKayeFDob) (Sync bn DCINE)
Language                         : Spanish
Default                          : Yes
Forced                           : Yes

Audio #2
ID                               : 3
Format                           : AC-3
Format/Info                      : Audio Coding 3
Mode extension                   : CM (complete main)
Codec ID                         : A_AC3
Duration                         : 2h 7mn
Bit rate mode                    : Constant
Bit rate                         : 192 Kbps
Channel(s)                       : 1 channel
Channel positions                : Front: C
Sampling rate                    : 48.0 KHz
Bit depth                        : 16 bits
Compression mode                 : Lossy
Stream size                      : 175 MiB (3%)
Title                            : Doblaje DVD 2007
Language                         : Spanish
Default                          : No
Forced                           : No

Audio #3
ID                               : 4
Format                           : AC-3
Format/Info                      : Audio Coding 3
Mode extension                   : CM (complete main)
Codec ID                         : A_AC3
Duration                         : 2h 7mn
Bit rate mode                    : Constant
Bit rate                         : 192 Kbps
Channel(s)                       : 1 channel
Channel positions                : Front: C
Sampling rate                    : 48.0 KHz
Bit depth                        : 16 bits
Compression mode                 : Lossy
Stream size                      : 175 MiB (3%)
Title                            : Doblaje DVD 2009
Language                         : Spanish
Default                          : No
Forced                           : No

Audio #4
ID                               : 5
Format                           : AC-3
Format/Info                      : Audio Coding 3
Mode extension                   : CM (complete main)
Codec ID                         : A_AC3
Duration                         : 2h 7mn
Bit rate mode                    : Constant
Bit rate                         : 192 Kbps
Channel(s)                       : 1 channel
Channel positions                : Front: C
Sampling rate                    : 48.0 KHz
Bit depth                        : 16 bits
Compression mode                 : Lossy
Stream size                      : 175 MiB (3%)
Language                         : English
Default                          : No
Forced                           : No

Text #1
ID                               : 6
Format                           : UTF-8
Codec ID                         : S_TEXT/UTF8
Codec ID/Info                    : UTF-8 Plain Text
Title                            : Español de España
Language                         : Spanish
Default                          : No
Forced                           : No

Text #2
ID                               : 7
Format                           : UTF-8
Codec ID                         : S_TEXT/UTF8
Codec ID/Info                    : UTF-8 Plain Text
Title                            : Español latino
Language                         : Spanish
Default                          : No
Forced                           : No

Text #3
ID                               : 8
Format                           : UTF-8
Codec ID                         : S_TEXT/UTF8
Codec ID/Info                    : UTF-8 Plain Text
Language                         : English
Default                          : No
Forced                           : No

Menu
00:00:00.000                     : en:Chapter 01
00:15:44.276                     : en:Chapter 02
00:29:00.238                     : en:Chapter 03
00:44:33.462                     : en:Chapter 04
00:55:15.228                     : en:Chapter 05
01:16:33.422                     : en:Chapter 06
01:31:41.037                     : en:Chapter 07
01:46:24.836                     : en:Chapter 08


Capturas:

Imagen Imagen
Imagen Imagen
Imagen Imagen
Imagen Imagen
Imagen Imagen
Imagen Imagen




Enlace:
eD2K link 1963 El gran MacLintock (McLintock!) (McLaglen) BDRip 720p (Spa (Doblaje Cines 19...by DON-DCINE.mkv [5.80 Gb] 

Avatar de Usuario
Graveland
 
Mensajes: 4773
Registrado: 22 Nov 2012 15:30
Agradecido : 4005 veces
Agradecimiento recibido: 4307 veces

Re: McLintock! (Andrew V. McLaglen, 1963) BDRip 720p Cuatrial SE-I

Mensaje por Graveland » 15 Jun 2024 17:14

Muchas gracias, DCINE.

Avatar de Usuario
yojimbo
 
Mensajes: 13764
Registrado: 18 Oct 2012 14:25
Agradecido : 14255 veces
Agradecimiento recibido: 4261 veces

Re: McLintock! (Andrew V. McLaglen, 1963) BDRip 720p Cuatrial SE-I

Mensaje por yojimbo » 15 Jun 2024 21:37

Muchas gracias, DCINE, DON, DannyKayeFDob y Marc27.

Responder

Volver a “Cine de Reestreno”