Prohibido enamorarse (José Antonio Nieves Conde, 1961) TVRip VO

Puntuación
4/10
3 votos

Moderador: Monsieur Lange

Responder
felipemarlou
 
Mensajes: 1525
Registrado: 10 Ago 2013, 00:02
Agradecido : 772 veces
Agradecimiento recibido: 2530 veces

España Prohibido enamorarse (José Antonio Nieves Conde, 1961) TVRip VO

Mensaje por felipemarlou » 12 Ago 2019, 09:28


Publicada por Montagut en exploradoresp2p

Imagen


Prohibido enamorarse (1961)

Director: José Antonio Nieves Conde
Guión: Luis Ligero, Edgar Neville, José Antonio Nieves Conde (Obra: Alfonso Paso)
Música: Manuel Parada
Fotografía: Alfredo Fraile (B/N)
Producción: Arturo González Producciones Cinematográficas
Duración: 87 min.
País: España

Intérpretes:
Rafael Alcántara, Rafael Bardem, Irán Eory, Lola Gaos, Ángel Garasa, Isabel Garcés, Elena García, Gracita Morales, Antonio Moreno , Julio Núñez, Francisco Piquer, Ena Sedeño, Tere Velázquez, Ángel Álvarez

http://www.imdb.com/title/tt0055332/

http://www.filmaffinity.com/es/film711974.htmll

Argumento:

El doctor Bolt tiene dos pacientes con historias similares. Leandro González y Elena García no se conocen, pero sus vidas son muy parecidas. Ambos son viudos, los dos se quejan continuamente de sus achaques y problemas de salud y, en definitiva, han perdido las ganas de vivir. Adaptación de la obra de teatro de Alfonso Paso "Cosas de Papá y Mamá".


Capturas:

Imagen
Imagen
Imagen
Imagen
Imagen


Datos técnicos:
Spoiler:
General
Complete name rohibido.enamorarse.(1961).DVBRip.Castellano.Exploradoresp2p.avi
Format : AVI
Format/Info : Audio Video Interleave
Format profile : OpenDML
File size : 1.30 GiB
Duration : 1h 26mn
Overall bit rate : 2 155 Kbps
Writing application : Lavf51.12.1

Video
ID : 0
Format : xvid
Codec ID : xvid
Duration : 1h 26mn
Bit rate : 2 012 Kbps
Width : 720 pixels
Height : 404 pixels
Display aspect ratio : 16:9
Frame rate : 25.000 fps
Bits/(Pixel*Frame) : 0.277
Stream size : 1.21 GiB (93%)

Audio
ID : 1
Format : MPEG Audio
Format version : Version 1
Format profile : Layer 3
Mode : Joint stereo
Codec ID : 55
Codec ID/Hint : MP3
Duration : 1h 26mn
Bit rate mode : Constant
Bit rate : 128 Kbps
Channel(s) : 2 channels
Sampling rate : 44.1 KHz
Compression mode : Lossy
Stream size : 78.8 MiB (6%)
Alignment : Aligned on interleaves
Interleave, duration : 26 ms (0.65 video frame)

Imagen


Enlace al emule:

eD2K link Prohibido.enamorarse.(1961).DVBRip.Castellano.Exploradoresp2p.avi [1.30 Gb] 

Avatar de Usuario
gatatitania
 
Mensajes: 4430
Registrado: 16 Oct 2012, 18:27
Ubicación: Gatatitania es un gato hambriento, superviviente del planeta gatatitania...
Agradecido : 2334 veces
Agradecimiento recibido: 1262 veces

Re: Prohibido enamorarse (José Antonio Nieves Conde, 1961) TVRip VO

Mensaje por gatatitania » 12 Ago 2019, 12:24

¡Mil gracias, Felipe! :genial: :genial: :genial:

Avatar de Usuario
sete
 
Mensajes: 4075
Registrado: 22 Dic 2012, 16:10
Agradecido : 146 veces
Agradecimiento recibido: 1132 veces

Re: Prohibido enamorarse (José Antonio Nieves Conde, 1961) TVRip VO

Mensaje por sete » 12 Ago 2019, 14:35

Muchas gracias, Montagut y felipemarlou.
:hi:
Este mundo está traicionando a la vida.
José Luis Sampedro

jail
 
Mensajes: 6116
Registrado: 18 Oct 2012, 15:34
Agradecido : 6682 veces
Agradecimiento recibido: 1867 veces

Re: Prohibido enamorarse (José Antonio Nieves Conde, 1961) TVRip VO

Mensaje por jail » 12 Ago 2019, 14:59

Gracias, felipe y Montagut.

oskib
 
Mensajes: 613
Registrado: 16 Oct 2012, 17:37
Ubicación: San Nicolás - Argentina
Agradecido : 497 veces
Agradecimiento recibido: 147 veces

Re: Prohibido enamorarse (José Antonio Nieves Conde, 1961) TVRip VO

Mensaje por oskib » 12 Ago 2019, 18:32

Muchas gracias, felipemarlou & montagut.

Avatar de Usuario
tonapar1
 
Mensajes: 4117
Registrado: 16 Oct 2012, 20:19
Agradecido : 1067 veces
Agradecimiento recibido: 1122 veces

Re: Prohibido enamorarse (José Antonio Nieves Conde, 1961) TVRip VO

Mensaje por tonapar1 » 12 Ago 2019, 23:06

Muchas gracias por el ripeo a felipemarlou y a montagut. Un saludo a ambos.

Avatar de Usuario
tuscarola
 
Mensajes: 2142
Registrado: 25 Dic 2012, 20:38
Ubicación: En el Tarragonés
Agradecido : 748 veces
Agradecimiento recibido: 796 veces

Re: Prohibido enamorarse (José Antonio Nieves Conde, 1961) TVRip VO

Mensaje por tuscarola » 14 Ago 2019, 06:48

Muchas gracias, Montagut y felipe.
Imagen
Imagen
Imagen
Imagen
In Memoriam:
Juan Manuel Soriano
Carmen Lombarte
Maribel Casals
Felipe Peña
Alfonso Santigosa
Rafael Navarro

Avatar de Usuario
yojimbo
 
Mensajes: 8910
Registrado: 18 Oct 2012, 14:25
Agradecido : 8839 veces
Agradecimiento recibido: 2123 veces

Re: Prohibido enamorarse (José Antonio Nieves Conde, 1961) TVRip VO

Mensaje por yojimbo » 14 Ago 2019, 14:26

Muchas gracias, felipemarlou y Montagut.

Avatar de Usuario
Prudencio
 
Mensajes: 4261
Registrado: 16 Oct 2012, 18:46
Agradecido : 4690 veces
Agradecimiento recibido: 1617 veces

Re: Prohibido enamorarse (José Antonio Nieves Conde, 1961) TVRip VO

Mensaje por Prudencio » 22 Ago 2019, 00:11

Muchas gracias, Felipe y Montagut. :hi:

Responder

Volver a “Largos Modernos”