La moglie è uguale per tutti (Giorgio Simonelli, 1955) DVDRip VO

Puntuación
Sin
puntuar

Moderador: mifune

Responder
vozidar
 
Mensajes: 1246
Registrado: 17 Oct 2012, 05:58
Agradecido : 340 veces
Agradecimiento recibido: 4051 veces

Italia La moglie è uguale per tutti (Giorgio Simonelli, 1955) DVDRip VO

Mensaje por vozidar » 11 May 2017, 10:45


Director
Giorgio Simonelli

Guion
Giovanni Grimaldi, Ruggero Maccari, Gino Mangini, Vittorio Metz, Francesco Nelli

Música
Carlo Innocenzi

Fotografía
Mario Montuori (B&W)

Reparto
Nino Taranto, Nadia Gray, Lea Padovani, Hélène Rémy, Fulvia Franco, Pina Renzi, Liliana Bonfatti, Bice Valori, Linda Tur, Tina Pica, Yvonne Sanson, Roberto Risso, Carlo Dapporto, Ugo Tognazzi

Productora
Oscar Film
Género
Comedia
Sinopsis
Antonio De Papis es abogado especializado en divorcios de mutuo acuerdo. Ver tantos casos de matrimonios fallidos, le ha hecho ser contrario al matrimonio. Por eso cuando su subrino le llama para decirle que va a casarse, Antonio le invita a pasar un día en su despacho para ver la realidad del matrimonio...

Críticas
Giorgio Simonelli ha a disposizione un cast notevole per enumerare le buone ragioni che dovrebbero spingere le persone a non sposarsi. Si va da Nino Taranto a Mario Riva (all'epoca non ancora conduttore del famosissimo Il Musichiere ma noto come attore di varietà nonché partner di Vianello e Tognazzi nella trasmissione tv Un due tre). Proprio questi due attori (e non solo loro) sono oggetto di un intervento che all'orecchio dello spettatore odierno potrà sembrare straniante: sono doppiati e stessa sorte tocca a Paolo Panelli utilizzato in un ruolo minore. La struttura narrativa è quella del film a episodi anche se questi non vengono separati rigidamente ma legati dall'escamotage della visita allo studio legale. Uno si distingue in modo particolare per una vena surreale che fa pensare ad Achille Campanile ed è quello della neo sposa che lascia precipitosamente il banchetto di nozze.
Ovviamente lo spettatore avvertito (di allora così come di oggi) non può pensare che il film costituisca una specie di promozione in forma di commedia della separazione legale. I giorni del referendum sul divorzio erano ancora lontani e la censura del tempo era piuttosto vigile in materia. Nel finale si impone quindi quello che ora definiremmo moralismo ma che all'epoca era una pura e semplice... necessità. (Mymovies.it)
------------------------------------------------------------------------------------------------------------

Código: Seleccionar todo

General
Complete name               : La Moglie È Uguale Per Tutti 1955 (Ugo Tognazzi - Raimondo Vianello - Nino Taranto - Mario Riva - Lea Padovani - Bice Valori) Dvd Rip By Bandinotto.avi
Format                      : DivX
Format/Info                 : Hack of AVI
File size                   : 881 MiB
Duration                    : 1 h 32 min
Overall bit rate            : 1 338 kb/s

Video
ID                          : 0
Format                      : MPEG-4 Visual
Format settings, BVOP       : 1
Format settings, QPel       : No
Format settings, GMC        : No warppoints
Format settings, Matrix     : Default (H.263)
Muxing mode                 : Packed bitstream
Codec ID                    : DX50
Codec ID/Hint               : DivX 5
Duration                    : 1 h 32 min
Bit rate                    : 1 200 kb/s
Nominal bit rate            : 4 854 kb/s
Width                       : 720 pixels
Height                      : 532 pixels
Display aspect ratio        : 4:3
Frame rate                  : 25.000 FPS
Color space                 : YUV
Chroma subsampling          : 4:2:0
Bit depth                   : 8 bits
Scan type                   : Progressive
Compression mode            : Lossy
Bits/(Pixel*Frame)          : 0.125
Stream size                 : 790 MiB (90%)
Title                       : Video
Writing library             : DivX 6.2.5 (UTC 2006-06-16)

Audio
ID                          : 1
Format                      : MPEG Audio
Format version              : Version 1
Format profile              : Layer 3
Codec ID                    : 55
Codec ID/Hint               : MP3
Duration                    : 1 h 32 min
Bit rate mode               : Constant
Bit rate                    : 128 kb/s
Channel(s)                  : 2 channels
Sampling rate               : 48.0 kHz
Compression mode            : Lossy
Stream size                 : 84.3 MiB (10%)
Alignment                   : Split accross interleaves
Interleave, duration        : 40  ms (1.00 video frame)
Interleave, preload duratio : 50  ms
Title                       : Audio

Imagen
Imagen
Imagen

eD2K link La Moglie È Uguale Per Tutti 1955 (Ugo Tognazzi - Raimondo Vianello - Nino Taran...y Bandinotto.avi [881.05 Mb] 

En KG está disponible el DVD con subtítulos en italiano

:hi:
Última edición por vozidar el 12 May 2017, 08:13, editado 1 vez en total.

Avatar de Usuario
boettcher
 
Mensajes: 1598
Registrado: 17 Oct 2012, 12:01
Agradecido : 978 veces
Agradecimiento recibido: 268 veces

Re: La moglie è uguale per tutti (Giorgio Simonelli, 1955) DVDRip VO

Mensaje por boettcher » 11 May 2017, 18:34

Muchas gracias, vozidar :)

jail
 
Mensajes: 6268
Registrado: 18 Oct 2012, 15:34
Agradecido : 6862 veces
Agradecimiento recibido: 1980 veces

Re: La moglie è uguale per tutti (Giorgio Simonelli, 1955) DVDRip VO

Mensaje por jail » 11 May 2017, 20:19

Gracias, vozidar. A ver si hay suerte con los subtítulos.

Existe también en la mula este enlace, con, parece ser, pocas fuentes: eD2K link La moglie è uguale per tutti.avi [1.36 Gb] 

Avatar de Usuario
droid
Administrador del Sitio
 
Mensajes: 8143
Registrado: 12 Sep 2012, 03:37
Agradecido : 4650 veces
Agradecimiento recibido: 7037 veces

Re: La moglie è uguale per tutti (Giorgio Simonelli, 1955) DVDRip VO

Mensaje por droid » 11 May 2017, 22:11

Gracias por abrir ficha, Vozidar. :aplauso: :genial:

El DVD de KG está sin fuentes, pero a ver si alguien hace caso a mi petición y extrae el subtítulo.

Un saludo. :hi:

Avatar de Usuario
eddelon
 
Mensajes: 2181
Registrado: 28 Oct 2012, 01:05
Ubicación: Buenos Aires,Argentina
Agradecido : 2279 veces
Agradecimiento recibido: 392 veces

Re: La moglie è uguale per tutti (Giorgio Simonelli, 1955) DVDRip VO

Mensaje por eddelon » 28 Oct 2018, 00:58

GRAZIE, Vozidar, ojalá Droid tenga suerte con los subtítulos. :genial:

:hi:

Avatar de Usuario
yojimbo
 
Mensajes: 9386
Registrado: 18 Oct 2012, 14:25
Agradecido : 9416 veces
Agradecimiento recibido: 2398 veces

Re: La moglie è uguale per tutti (Giorgio Simonelli, 1955) DVDRip VO

Mensaje por yojimbo » 28 Oct 2018, 15:29

Me apunto a la descarga.

Muchas gracias, vozidar.

Avatar de Usuario
Graveland
 
Mensajes: 3649
Registrado: 22 Nov 2012, 15:30
Agradecido : 2301 veces
Agradecimiento recibido: 3707 veces

Re: La moglie è uguale per tutti (Giorgio Simonelli, 1955) DVDRip VO

Mensaje por Graveland » 02 Nov 2018, 15:51

Muchas gracias, vozidar.

TONIOF
 
Mensajes: 59
Registrado: 10 Ene 2013, 19:57
Agradecimiento recibido: 134 veces

Re: La moglie è uguale per tutti (Giorgio Simonelli, 1955) DVDRip VO

Mensaje por TONIOF » 04 Nov 2018, 19:38

¿Para cuándo un subtítulo, bien en italiano o castellano? ¿Algún valiente?

Avatar de Usuario
mifune
 
Mensajes: 6787
Registrado: 02 Oct 2012, 20:48
Ubicación: Welcome to the Jungle
Agradecido : 10228 veces
Agradecimiento recibido: 9712 veces

Re: La moglie è uguale per tutti (Giorgio Simonelli, 1955) DVDRip VO

Mensaje por mifune » 05 Nov 2018, 00:52

Hay una copia en youtube con subs automáticos en italiano, menos es nada y pueden servir para unos próximos subtítulos.
"Una vez superada la barrera de los subtítulos, descubrirán películas maravillosas” Bong Joon-Ho

Responder

Volver a “Largos Clásicos”