Non è vero ma ci credo (Eduardo de Filippo, 1959) TVRip VO

Puntuación
Sin
puntuar
Responder
vozidar
 
Mensajes: 1230
Registrado: 17 Oct 2012, 05:58
Agradecido : 331 veces
Agradecimiento recibido: 3979 veces

Italia Non è vero ma ci credo (Eduardo de Filippo, 1959) TVRip VO

Mensaje por vozidar » 18 Jul 2014, 15:16

Imagen

Director
Eduardo de Filippo

Director televisivo
Fernanda Turvani

Reparto
Peppino de Filippo... Gervasio Savastano
Pietro Privitera... Alberto Sammaria
Corrado Olmi... Donalti
Cesare Bettarini... Botola
Aldo Alori... Spirito
Pino Ferrara... Belisario Malvurio
Pierino Bertello... Musciello
Lidia Martora... Teresa Savastano
Alba Cardilli... Rosina
Gabriella Placci... Mazzarella
M.A. Zaccaria... Tina

Sinopsis
El "commendatore" Gervasio Savastano está atormentado por la superstición: sus negocios no van bien y él está convencido que la culpa es de uno de sus empleados, Belisario Malvurio, al que atribuye un influjo maléfico. También en la familia hay problemas: su hija Rosina se ha enamorado de un joven, al cual Savastano no le cree a la altura de su hija. Pero de pronto, la fortuna parece acordarse de Savastano: a la empresa llega un joven, Alberto Sammaria, jorobado, y con su llegada los negocios comienzan a mejorar. También su hija parece haber recuperado la serenidad; el joven del que estaba enamorado se ha convertido en un lejano recuerdo. Todo parece ir sobre ruedas, hasta que el diablo mete la mano: Alberto Sammaria confiesa a Savastano que está enamorado de Rosina, y por este motivo se ve obligado a presentar su dimisión. Savastano, desesperado, intentará convencer a su hija de casarse con el jorobado. Grabado en el Teatro delle Arti en Roma con la dirección televisiva de Fernanda Turvani.

Comentario
La comedia en tres actos "Non è vero...ma ci credo", escrita en 1942, está considerada la obra maestra cómica de toda la producción teatral de Peppino De Filippo. Tal es su éxito que diez años más tarde se decide hacer una película. El tema es el de la superstición, bastante frecuente en la obra del dramaturgo De Filippo, como lucha desesperada de quien afronta batallas para combartir al destino y a la mala suerte, de quien no tiene otros medios a disposición para alejar los infortunios, que recorrer a subterfugios y conjuros. Pero es sabido que la superstición no tiene nada que ver con los hechos de la vida, es solo una actitud mental que el hombre a veces utiliza frente a sus incapacidades, y que altera la visión de la propia realidad.

Código: Seleccionar todo

General
Complete name                  : C:\Users\usuario\Downloads\eMule\Temp\- Edo_preview.avi
Format                         : AVI
Format/Info                    : Audio Video Interleave
File size                      : 880 MiB
Duration                       : 1h 49mn
Overall bit rate               : 1 129 Kbps
Writing library                : AVI plugin release

Video
ID                             : 0
Format                         : MPEG-4 Visual
Format settings, BVOP          : Yes
Format settings, QPel          : No
Format settings, GMC           : No warppoints
Format settings, Matrix        : Default (H.263)
Codec ID                       : DX50
Codec ID/Hint                  : DivX 5
Duration                       : 1h 49mn
Bit rate                       : 995 Kbps
Width                          : 512 pixels
Height                         : 384 pixels
Display aspect ratio           : 4:3
Frame rate                     : 25.000 fps
Color space                    : YUV
Chroma subsampling             : 4:2:0
Bit depth                      : 8 bits
Scan type                      : Progressive
Compression mode               : Lossy
Bits/(Pixel*Frame)             : 0.202
Stream size                    : 776 MiB (88%)
Writing library                : DivX 5.0.2 (UTC 2002-05-16)

Audio
ID                             : 1
Format                         : MPEG Audio
Format version                 : Version 1
Format profile                 : Layer 3
Mode                           : Joint stereo
Mode extension                 : MS Stereo
Codec ID                       : 55
Codec ID/Hint                  : MP3
Duration                       : 1h 49mn
Bit rate mode                  : Constant
Bit rate                       : 128 Kbps
Channel(s)                     : 2 channels
Sampling rate                  : 44.1 KHz
Compression mode               : Lossy
Stream size                    : 99.6 MiB (11%)
Alignment                      : Split accross interleaves
Interleave, duration           : 200 ms (5.00 video frames)
Imagen
Imagen

eD2K link - Edoardo De Filippo - Non È Vero Ma Ci Credo.avi [880.10 Mb] 

Avatar de Usuario
droid
 
Mensajes: 8141
Registrado: 12 Sep 2012, 03:37
Agradecido : 4644 veces
Agradecimiento recibido: 7006 veces

Re: Non è vero ma ci credo (Eduardo de Filippo, 1959) TVRip VO

Mensaje por droid » 18 Jul 2014, 16:43

Muchas gracias, Vozidar. :aplauso:

Un saludo. :hi:

Responder

Volver a “Teatro”