An Evening With Pavarotti And Sutherland (Richard Bonynge, 1988) DVDRip

Puntuación
Sin
puntuar
Responder
Avatar de Usuario
locotus
 
Mensajes: 922
Registrado: 16 Oct 2012, 18:18
Agradecido : 45 veces
Agradecimiento recibido: 5669 veces

Estados Unidos An Evening With Pavarotti And Sutherland (Richard Bonynge, 1988) DVDRip

Mensaje por locotus » 20 Sep 2016, 19:13

An Evening With Pavarotti And Sutherland
DVD Editado en2008

Imagen

Donizetti:
Lucia di Lammermoor: Act 1 Scene 2
Lucia di Lammermoor: Act 3 Scene 3
Ariel Bybee (Alisa), Julien Robbins (Raimondo)

Verdi: La Traviata: Act 3
Leo Nucci (Germont), Hilary Johnsson (Annina), James Courtney (Doctor Grenvil)

Verdi: Rigoletto: Act 3
Leo Nucci (Rigoletto), Isola Jones (Maddalena), Ferruccio Furlanetto (Sparafucile)

Luciano Pavarotti & Joan Sutherland

Richard Bonynge-Director.

Video director: Kirk Browning

Capturas:
ImagenImagenImagenImagenImagen

ImagenImagenImagenImagenImagen

Datos:

Código: Seleccionar todo

General
Unique ID                                : 251271089071241653730372717723042699044 (0xBD090D2C7D600C83AA62EE1EB5BBD724)
Complete name                            : C:\En Proceso\Verdi Donizetti - An Evening with Sutherland & Pavarotti DVDRip.mkv
Format                                   : Matroska
Format version                           : Version 4 / Version 2
File size                                : 3.20 GiB
Duration                                 : 1 h 54 min
Overall bit rate                         : 4 002 kb/s
Encoded date                             : UTC 2016-09-19 19:41:34
Writing application                      : mkvmerge v7.9.0 ('Birds') 32bit
Writing library                          : libebml v1.3.1 + libmatroska v1.4.2

Video
ID                                       : 1
Format                                   : AVC
Format/Info                              : Advanced Video Codec
Format profile                           : High@L4.1
Format settings, CABAC                   : Yes
Format settings, ReFrames                : 4 frames
Codec ID                                 : V_MPEG4/ISO/AVC
Duration                                 : 1 h 54 min
Bit rate                                 : 2 487 kb/s
Width                                    : 656 pixels
Height                                   : 480 pixels
Display aspect ratio                     : 4:3
Frame rate mode                          : Constant
Frame rate                               : 29.970 (30000/1001) FPS
Color space                              : YUV
Chroma subsampling                       : 4:2:0
Bit depth                                : 8 bits
Scan type                                : Progressive
Bits/(Pixel*Frame)                       : 0.264
Stream size                              : 1.99 GiB (62%)
Writing library                          : x264 core 148 r2705 3f5ed56
Encoding settings                        : cabac=1 / ref=4 / deblock=1:-1:-1 / analyse=0x3:0x133 / me=umh / subme=7 / psy=1 / psy_rd=1.00:0.15 / mixed_ref=1 / me_range=16 / chroma_me=1 / trellis=1 / 8x8dct=1 / cqm=0 / deadzone=21,11 / fast_pskip=1 / chroma_qp_offset=-3 / threads=3 / lookahead_threads=1 / sliced_threads=0 / nr=0 / decimate=1 / interlaced=0 / bluray_compat=0 / constrained_intra=0 / bframes=3 / b_pyramid=2 / b_adapt=2 / b_bias=0 / direct=3 / weightb=1 / open_gop=0 / weightp=2 / keyint=300 / keyint_min=29 / scenecut=40 / intra_refresh=0 / rc_lookahead=60 / rc=2pass / mbtree=1 / bitrate=2487 / ratetol=1.0 / qcomp=0.60 / qpmin=0 / qpmax=69 / qpstep=4 / cplxblur=20.0 / qblur=0.5 / vbv_maxrate=50000 / vbv_bufsize=62500 / nal_hrd=none / filler=0 / ip_ratio=1.40 / aq=1:1.00
Language                                 : English
Default                                  : Yes
Forced                                   : No

Audio
ID                                       : 2
Format                                   : DTS
Format/Info                              : Digital Theater Systems
Mode                                     : 16
Format settings, Endianness              : Big
Codec ID                                 : A_DTS
Duration                                 : 1 h 54 min
Bit rate mode                            : Constant
Bit rate                                 : 1 510 kb/s
Channel(s)                               : 6 channels
Channel positions                        : Front: L C R, Side: L R, LFE
Sampling rate                            : 48.0 kHz
Frame rate                               : 93.750 FPS (512 spf)
Bit depth                                : 24 bits
Compression mode                         : Lossy
Stream size                              : 1.21 GiB (38%)
Language                                 : Italian
Default                                  : Yes
Forced                                   : No

Text #1
ID                                       : 3
Format                                   : VobSub
Muxing mode                              : zlib
Codec ID                                 : S_VOBSUB
Codec ID/Info                            : Picture based subtitle format used on DVDs
Duration                                 : 1 h 44 min
Bit rate                                 : 934 b/s
Count of elements                        : 583
Stream size                              : 716 KiB (0%)
Language                                 : Italian
Default                                  : No
Forced                                   : No

Text #2
ID                                       : 4
Format                                   : VobSub
Muxing mode                              : zlib
Codec ID                                 : S_VOBSUB
Codec ID/Info                            : Picture based subtitle format used on DVDs
Duration                                 : 1 h 44 min
Bit rate                                 : 1 018 b/s
Count of elements                        : 583
Stream size                              : 781 KiB (0%)
Language                                 : English
Default                                  : No
Forced                                   : No

Text #3
ID                                       : 5
Format                                   : VobSub
Muxing mode                              : zlib
Codec ID                                 : S_VOBSUB
Codec ID/Info                            : Picture based subtitle format used on DVDs
Duration                                 : 1 h 44 min
Bit rate                                 : 1 016 b/s
Count of elements                        : 583
Stream size                              : 780 KiB (0%)
Language                                 : Spanish
Default                                  : No
Forced                                   : No
Audio del DVD sin tocar, subtítulos en italiano, inglés y español incluídos
en el contenedor MKV. Todos proceden del DVD.

Elink:
eD2K link Verdi Donizetti - An Evening with Sutherland & Pavarotti DVDRip.mkv [3.20 Gb] 
“Si no lees los periódicos estás desinformado”.
Y si los lees estás mal informado”.
Denzel Washington.

Avatar de Usuario
mifune
 
Mensajes: 6691
Registrado: 02 Oct 2012, 20:48
Ubicación: Welcome to the Jungle
Agradecido : 9943 veces
Agradecimiento recibido: 9317 veces

Re: An Evening With Pavarotti And Sutherland (Richard Bonynge, 1988) DVDRip

Mensaje por mifune » 20 Sep 2016, 23:53

Ópera, que bien. Gracias locotus.
"Una vez superada la barrera de los subtítulos, descubrirán películas maravillosas” Bong Joon-Ho

Responder

Volver a “Ópera”