The Fox and the Hound (Art Stevens, 1981) BDRip 720p Dual SE

Puntuación
8/10
1 voto

Tod y Toby

Moderador: yogiyamada

Reglas del Foro
Norma de los tres años.
Responder
Avatar de Usuario
jomime
 
Mensajes: 152
Registrado: 16 Oct 2012, 15:41
Agradecido : 14 veces
Agradecimiento recibido: 278 veces

Estados Unidos The Fox and the Hound (Art Stevens, 1981) BDRip 720p Dual SE

Mensaje por jomime » 27 Feb 2014, 20:54

Imagen

Tod y Toby (1981)(Animación) BDrip 720p (Dual.AC3)(Sub)

IMDb
TÍTULO ORIGINAL: The Fox and the Hound
AÑO: 1981
DURACIÓN: 90 min.
PAÍS: Imagen
DIRECTOR: Art Stevens, Ted Berman, Richard Rich
GUIÓN: Larry Clemmons, Peter Young, Steve Hulett, Dave Michener, Burny Mattinson, Earl Kress, Vance Gerry
MÚSICA: Buddy Baker
FOTOGRAFÍA: Animation
REPARTO: Animation
PRODUCTORA: Walt Disney Pictures
GÉNERO: Animación. Drama. Aventuras. Musical. Infantil | Amistad. Animales. Naturaleza

SINOPSIS:
La aventura y la diversión de este clásico de la Disney comienzan cuando una adorable viuda adopta un precioso cachorro de zorro llamado Tod. El travieso zorro pronto se encuentra con Toby, un adorable cachorro de perro de caza. Así se hace los dos inseparables amigos... sin saber que por su naturaleza deberían ser enemigos. Bajo la mirada vigilante de Mamá Búho, Tod y Toby juegan y se divierten en el bosque, inconscientes de que en el futuro tendrán que enfrentarse y poner su amistad a prueba. (FILMAFFINITY)

Código: Seleccionar todo

General
Complete name                            : Tod y Toby (1981) Bdrip 720p Dual x jomime.mkv
Format                                   : Matroska
Format version                           : Version 4 / Version 2
File size                                : 4.28 GiB
Duration                                 : 1h 23mn
Overall bit rate                         : 7 385 Kbps
Encoded date                             : UTC 2014-02-27 12:36:55
Writing application                      : mkvmerge v6.7.0 ('Back to the Ground') 64bit built on Jan  8 2014 15:10:52
Writing library                          : libebml v1.3.0 + libmatroska v1.4.1

Video
ID                                       : 1
Format                                   : AVC
Format/Info                              : Advanced Video Codec
Format profile                           : High@L4.1
Format settings, CABAC                   : Yes
Format settings, ReFrames                : 9 frames
Codec ID                                 : V_MPEG4/ISO/AVC
Duration                                 : 1h 23mn
Bit rate                                 : 5 958 Kbps
Width                                    : 1 202 pixels
Height                                   : 720 pixels
Display aspect ratio                     : 1.669
Frame rate mode                          : Constant
Frame rate                               : 23.976 fps
Color space                              : YUV
Chroma subsampling                       : 4:2:0
Bit depth                                : 8 bits
Scan type                                : Progressive
Bits/(Pixel*Frame)                       : 0.287
Stream size                              : 3.45 GiB (81%)
Writing library                          : x264 core 132 r2310 76a5c3a
Encoding settings                        : cabac=1 / ref=9 / deblock=1:-1:-1 / analyse=0x3:0x133 / me=umh / subme=10 / psy=1 / psy_rd=1.00:0.15 / mixed_ref=1 / me_range=24 / chroma_me=1 / trellis=2 / 8x8dct=1 / cqm=0 / deadzone=21,11 / fast_pskip=1 / chroma_qp_offset=-3 / threads=18 / lookahead_threads=3 / sliced_threads=0 / nr=0 / decimate=1 / interlaced=0 / bluray_compat=0 / constrained_intra=0 / bframes=8 / b_pyramid=2 / b_adapt=2 / b_bias=0 / direct=3 / weightb=1 / open_gop=0 / weightp=2 / keyint=250 / keyint_min=23 / scenecut=40 / intra_refresh=0 / rc_lookahead=60 / rc=crf / mbtree=1 / crf=19.0 / qcomp=0.60 / qpmin=0 / qpmax=69 / qpstep=4 / ip_ratio=1.40 / aq=1:1.00
Language                                 : English
Default                                  : Yes
Forced                                   : No

Audio #1
ID                                       : 2
Format                                   : AC-3
Format/Info                              : Audio Coding 3
Mode extension                           : CM (complete main)
Format settings, Endianness              : Big
Codec ID                                 : A_AC3
Duration                                 : 1h 23mn
Bit rate mode                            : Constant
Bit rate                                 : 640 Kbps
Channel count                            : 6 channels
Channel positions                        : Front: L C R, Side: L R, LFE
Sampling rate                            : 48.0 KHz
Bit depth                                : 16 bits
Compression mode                         : Lossy
Stream size                              : 380 MiB (9%)
Title                                    : Español
Language                                 : Spanish
Default                                  : Yes
Forced                                   : No

Audio #2
ID                                       : 3
Format                                   : AC-3
Format/Info                              : Audio Coding 3
Mode extension                           : CM (complete main)
Format settings, Endianness              : Big
Codec ID                                 : A_AC3
Duration                                 : 1h 23mn
Bit rate mode                            : Constant
Bit rate                                 : 640 Kbps
Channel count                            : 6 channels
Channel positions                        : Front: L C R, Side: L R, LFE
Sampling rate                            : 48.0 KHz
Bit depth                                : 16 bits
Compression mode                         : Lossy
Stream size                              : 380 MiB (9%)
Title                                    : Inglés
Language                                 : English
Default                                  : No
Forced                                   : No

Text #1
ID                                       : 4
Format                                   : UTF-8
Codec ID                                 : S_TEXT/UTF8
Codec ID/Info                            : UTF-8 Plain Text
Title                                    : Español
Language                                 : Spanish
Default                                  : No
Forced                                   : No

Text #2
ID                                       : 5
Format                                   : UTF-8
Codec ID                                 : S_TEXT/UTF8
Codec ID/Info                            : UTF-8 Plain Text
Title                                    : Inglés
Language                                 : English
Default                                  : No
Forced                                   : No
Fuente : Full Bluray
Tamaño : 4.28 GIB
Audio : Español/Inglés
Resolución: 1202p X 720p
Subtítulos: Español/Inglés
Enlaces DD

Avatar de Usuario
yojimbo
 
Mensajes: 8693
Registrado: 18 Oct 2012, 14:25
Agradecido : 8539 veces
Agradecimiento recibido: 2050 veces

Re: The Fox and the Hound (Art Stevens, 1981) BDRip 720p Dual SE

Mensaje por yojimbo » 27 Feb 2014, 20:59

Muchas gracias, jomime.

Avatar de Usuario
gatatitania
 
Mensajes: 4331
Registrado: 16 Oct 2012, 18:27
Ubicación: Gatatitania es un gato hambriento, superviviente del planeta gatatitania...
Agradecido : 2285 veces
Agradecimiento recibido: 1225 veces

Re: The Fox and the Hound (Art Stevens, 1981) BDRip 720p Dual SE

Mensaje por gatatitania » 28 Feb 2014, 01:00

¡Gracias, jomime! :aplauso: :aplauso: :aplauso:

ciberyago
 
Mensajes: 2235
Registrado: 20 Oct 2012, 07:26
Agradecimiento recibido: 331 veces

Re: The Fox and the Hound (Art Stevens, 1981) BDRip 720p Dual SE

Mensaje por ciberyago » 28 Feb 2014, 05:20

Muchas gracias Jomine

Avatar de Usuario
yogiyamada
 
Mensajes: 750
Registrado: 02 Oct 2012, 20:44
Agradecido : 32 veces
Agradecimiento recibido: 244 veces

Re: The Fox and the Hound (Art Stevens, 1981) BDRip 720p Dual SE

Mensaje por yogiyamada » 28 Feb 2014, 19:43

Gracias, interesante, éste no lo vi.
Aportemos todos a que el Cine hable al alma al compartirlo libremente.

asung
 
Mensajes: 582
Registrado: 16 Oct 2012, 21:57
Agradecido : 220 veces
Agradecimiento recibido: 74 veces

Re: The Fox and the Hound (Art Stevens, 1981) BDRip 720p Dual SE

Mensaje por asung » 02 Mar 2014, 05:58

Gracias jomime, me la llevo al galeón

Avatar de Usuario
JGUTII
 
Mensajes: 1627
Registrado: 19 Oct 2012, 05:57
Ubicación: Ciudad del Betis
Agradecido : 5004 veces
Agradecimiento recibido: 116 veces

Re: The Fox and the Hound (Art Stevens, 1981) BDRip 720p Dual SE

Mensaje por JGUTII » 02 Mar 2014, 06:50

Muchas gracias, jomime. :hi:
Imagen

Avatar de Usuario
JoeRaymond
 
Mensajes: 973
Registrado: 16 Oct 2012, 15:29
Agradecido : 924 veces
Agradecimiento recibido: 140 veces

Re: The Fox and the Hound (Art Stevens, 1981) BDRip 720p Dual SE

Mensaje por JoeRaymond » 02 Mar 2014, 23:26

Muchas gracias.

Responder

Volver a “Largos Animación”