The Jungle Book (W. Reitherman, 1967) BDRip 720p Dual SE

Puntuación
9/10
2 votos

El libro de la selva

Moderador: yogiyamada

Reglas del Foro
Norma de los tres años.
Responder
Avatar de Usuario
jomime
 
Mensajes: 152
Registrado: 16 Oct 2012, 15:41
Agradecido : 14 veces
Agradecimiento recibido: 279 veces

Estados Unidos The Jungle Book (W. Reitherman, 1967) BDRip 720p Dual SE

Mensaje por jomime » 27 Feb 2014, 20:51

Imagen

El libro de la selva (1967)(Animación) BDrip 720p (Dual.AC3)(Sub)

IMDb
TÍTULO ORIGINAL: The Jungle Book
AÑO: 1967
DURACIÓN: 78 min.
PAÍS: Imagen
DIRECTOR: Wolfgang Reitherman
GUIÓN: Larry Clemmons (Novela: Rudyard Kipling)
MÚSICA: George Bruns, Terry Gilkyson, Richard M. Sherman
FOTOGRAFÍA: Animation
REPARTO: Animation
PRODUCTORA: Walt Disney
GÉNERO: Animación. Aventuras. Musical. Comedia. Infantil

SINOPSIS:
Tras la muerte de sus padres, Mowgli, un niño de apenas dos años, queda abandonado en la selva y es recogido por una manada de lobos. En el seno de la manada, Mowgli es criado como un lobo más hasta que crece y empieza a desenvolverse por sí mismo en la selva. (FILMAFFINITY)

Código: Seleccionar todo

General
Complete name                            : El libro de la selva (1967) Bdrip 720p Dual x jomime.mkv
Format                                   : Matroska
Format version                           : Version 4 / Version 2
File size                                : 2.64 GiB
Duration                                 : 1h 18mn
Overall bit rate                         : 4 817 Kbps
Encoded date                             : UTC 2014-02-27 14:55:29
Writing application                      : mkvmerge v6.7.0 ('Back to the Ground') 64bit built on Jan  8 2014 15:10:52
Writing library                          : libebml v1.3.0 + libmatroska v1.4.1

Video
ID                                       : 1
Format                                   : AVC
Format/Info                              : Advanced Video Codec
Format profile                           : High@L4.1
Format settings, CABAC                   : Yes
Format settings, ReFrames                : 9 frames
Codec ID                                 : V_MPEG4/ISO/AVC
Duration                                 : 1h 18mn
Bit rate                                 : 3 441 Kbps
Width                                    : 1 258 pixels
Height                                   : 720 pixels
Display aspect ratio                     : 16:9
Frame rate mode                          : Constant
Frame rate                               : 23.976 fps
Color space                              : YUV
Chroma subsampling                       : 4:2:0
Bit depth                                : 8 bits
Scan type                                : Progressive
Bits/(Pixel*Frame)                       : 0.158
Stream size                              : 1.89 GiB (71%)
Writing library                          : x264 core 133 r2334 a3ac64b
Encoding settings                        : cabac=1 / ref=9 / deblock=1:-1:-1 / analyse=0x3:0x133 / me=umh / subme=10 / psy=1 / psy_rd=1.00:0.15 / mixed_ref=1 / me_range=24 / chroma_me=1 / trellis=2 / 8x8dct=1 / cqm=0 / deadzone=21,11 / fast_pskip=1 / chroma_qp_offset=-3 / threads=18 / lookahead_threads=3 / sliced_threads=0 / nr=0 / decimate=1 / interlaced=0 / bluray_compat=0 / constrained_intra=0 / bframes=8 / b_pyramid=2 / b_adapt=2 / b_bias=0 / direct=3 / weightb=1 / open_gop=0 / weightp=2 / keyint=250 / keyint_min=23 / scenecut=40 / intra_refresh=0 / rc_lookahead=60 / rc=crf / mbtree=1 / crf=17.0 / qcomp=0.60 / qpmin=0 / qpmax=69 / qpstep=4 / ip_ratio=1.40 / aq=1:1.00
Language                                 : English
Default                                  : Yes
Forced                                   : No

Audio #1
ID                                       : 2
Format                                   : AC-3
Format/Info                              : Audio Coding 3
Mode extension                           : CM (complete main)
Format settings, Endianness              : Big
Codec ID                                 : A_AC3
Duration                                 : 1h 18mn
Bit rate mode                            : Constant
Bit rate                                 : 640 Kbps
Channel count                            : 6 channels
Channel positions                        : Front: L C R, Side: L R, LFE
Sampling rate                            : 48.0 KHz
Bit depth                                : 16 bits
Compression mode                         : Lossy
Stream size                              : 359 MiB (13%)
Title                                    : Español
Language                                 : Spanish
Default                                  : Yes
Forced                                   : No

Audio #2
ID                                       : 3
Format                                   : AC-3
Format/Info                              : Audio Coding 3
Mode extension                           : CM (complete main)
Format settings, Endianness              : Big
Codec ID                                 : A_AC3
Duration                                 : 1h 18mn
Bit rate mode                            : Constant
Bit rate                                 : 640 Kbps
Channel count                            : 6 channels
Channel positions                        : Front: L C R, Side: L R, LFE
Sampling rate                            : 48.0 KHz
Bit depth                                : 16 bits
Compression mode                         : Lossy
Stream size                              : 359 MiB (13%)
Title                                    : Inglés
Language                                 : English
Default                                  : No
Forced                                   : No

Text #1
ID                                       : 4
Format                                   : UTF-8
Codec ID                                 : S_TEXT/UTF8
Codec ID/Info                            : UTF-8 Plain Text
Title                                    : Español
Language                                 : Spanish
Default                                  : No
Forced                                   : No

Text #2
ID                                       : 5
Format                                   : UTF-8
Codec ID                                 : S_TEXT/UTF8
Codec ID/Info                            : UTF-8 Plain Text
Title                                    : Inglés
Language                                 : English
Default                                  : No
Forced                                   : No

Text #3
ID                                       : 6
Format                                   : UTF-8
Codec ID                                 : S_TEXT/UTF8
Codec ID/Info                            : UTF-8 Plain Text
Title                                    : Comentarios
Language                                 : Spanish
Default                                  : No
Forced                                   : No
Fuente : Full Bluray
Tamaño : 2.64 GIB
Audio : Español/Inglés
Resolución: 1258p X 720p
Subtítulos: Español/Inglés/Comentarios
Enlaces DD

Avatar de Usuario
yojimbo
 
Mensajes: 8961
Registrado: 18 Oct 2012, 14:25
Agradecido : 8901 veces
Agradecimiento recibido: 2143 veces

Re: The Jungle Book (W. Reitherman, 1967) BDRip 720p Dual SE

Mensaje por yojimbo » 27 Feb 2014, 20:58

Muchas gracias, jomime.

Avatar de Usuario
gatatitania
 
Mensajes: 4452
Registrado: 16 Oct 2012, 18:27
Ubicación: Gatatitania es un gato hambriento, superviviente del planeta gatatitania...
Agradecido : 2353 veces
Agradecimiento recibido: 1279 veces

Re: The Jungle Book (W. Reitherman, 1967) BDRip 720p Dual SE

Mensaje por gatatitania » 28 Feb 2014, 00:59

yojimbo escribió:Muchas gracias, jomime.
:aplauso: :aplauso: :aplauso:

ciberyago
 
Mensajes: 2270
Registrado: 20 Oct 2012, 07:26
Agradecimiento recibido: 345 veces

Re: The Jungle Book (W. Reitherman, 1967) BDRip 720p Dual SE

Mensaje por ciberyago » 28 Feb 2014, 05:21

Muchas gracias Jomine!

Avatar de Usuario
santiagoo
 
Mensajes: 2145
Registrado: 03 Oct 2012, 21:38
Ubicación: Zaragoza, Spain
Agradecido : 306 veces
Agradecimiento recibido: 2417 veces

Re: The Jungle Book (W. Reitherman, 1967) BDRip 720p Dual SE

Mensaje por santiagoo » 28 Feb 2014, 11:07

Pinchada ya. Muchas gracias, Jomime. :aplauso: :aplauso:
Si repartimos al menos lo que pesa un archivo antes de quitarlo del incoming, nunca habría problemas de fuentes, habría relevos naturales. Las líneas son asimétricas, pero nuestra rutina de subida-bajada no tiene por qué serlo. .

jail
 
Mensajes: 6150
Registrado: 18 Oct 2012, 15:34
Agradecido : 6714 veces
Agradecimiento recibido: 1892 veces

Re: The Jungle Book (W. Reitherman, 1967) BDRip 720p Dual SE

Mensaje por jail » 28 Feb 2014, 12:24

Si hay una película cachondona de Disney, es esta.
Gracias.

asung
 
Mensajes: 582
Registrado: 16 Oct 2012, 21:57
Agradecido : 220 veces
Agradecimiento recibido: 74 veces

Re: The Jungle Book (W. Reitherman, 1967) BDRip 720p Dual SE

Mensaje por asung » 02 Mar 2014, 05:59

Gracias jomime, me la llevo al Galeón

Avatar de Usuario
JoeRaymond
 
Mensajes: 973
Registrado: 16 Oct 2012, 15:29
Agradecido : 937 veces
Agradecimiento recibido: 143 veces

Re: The Jungle Book (W. Reitherman, 1967) BDRip 720p Dual SE

Mensaje por JoeRaymond » 02 Mar 2014, 23:28

Muchas gracias.

Avatar de Usuario
sete
 
Mensajes: 4131
Registrado: 22 Dic 2012, 16:10
Agradecido : 153 veces
Agradecimiento recibido: 1170 veces

Re: The Jungle Book (W. Reitherman, 1967) BDRip 720p Dual SE

Mensaje por sete » 12 Ago 2019, 18:11

Muchas gracias, jomime.
:hi:
Este mundo está traicionando a la vida.
José Luis Sampedro

Responder

Volver a “Largos Animación”