1001 Arabian Nights (Jack Kinney, 1959) DVDRip Dual+SI

Puntuación
5/10
1 voto

Mr Magoo, Las 1001 noches

Moderador: yogiyamada

Reglas del Foro
Norma de los tres años.
Responder
Avatar de Usuario
yogiyamada
 
Mensajes: 994
Registrado: 02 Oct 2012, 20:44
Agradecido : 211 veces
Agradecimiento recibido: 407 veces

Re: 1001 Arabian Nights (Jack Kinney, 1959) DVDRip DUAL

Mensaje por yogiyamada » 29 Abr 2015, 04:51

Muy buen aporte. Peli clave de la historia de la animación. :aplauso:
Aportemos todos a que el Cine hable al alma al compartirlo libremente.

Avatar de Usuario
MOLIST
 
Mensajes: 895
Registrado: 14 Nov 2012, 16:54
Ubicación: Levante
Agradecido : 1242 veces
Agradecimiento recibido: 380 veces

Re: 1001 Arabian Nights (Jack Kinney, 1959) DVDRip DUAL

Mensaje por MOLIST » 29 Abr 2015, 16:14

Muchas gracias, hdjzgz, :aplauso: por esta gran joya.

Avatar de Usuario
droid
Administrador del Sitio
 
Mensajes: 8159
Registrado: 12 Sep 2012, 03:37
Agradecido : 3946 veces
Agradecimiento recibido: 6309 veces

Re: 1001 Arabian Nights (Jack Kinney, 1959) DVDRip DUAL

Mensaje por droid » 29 Abr 2015, 21:05

Aprovecho el reflote.

Muchas gracias, hdjzgz.

Un saludo. :hi:

ostrata
 
Mensajes: 659
Registrado: 29 Dic 2012, 14:20
Agradecido : 104 veces
Agradecimiento recibido: 286 veces

Re: 1001 Arabian Nights (Jack Kinney, 1959) DVDRip DUAL

Mensaje por ostrata » 20 Feb 2016, 21:25

Gracias. :)

Saludos.

Avatar de Usuario
DCINE
 
Mensajes: 1721
Registrado: 30 Jul 2016, 20:09
Agradecido : 794 veces
Agradecimiento recibido: 3458 veces

Estados Unidos 1001 Arabian Nights (Jack Kinney, 1959) DVDRip Dual SI

Mensaje por DCINE » 08 Sep 2020, 07:00

Hilo anterior
Las mil y una... (noches)
(Mr. Magoo: 1001 Arabian Nights)

1959

Imagen




DIRECTOR: Jack Kinney
PRODUCTORA: United Productions of America (UPA)
GUIÓN: Czenzi Ormonde (Historia: Dick Shaw, Dick Kinney, Leo Salkin, Pete Burness, Lew Keller, Ed Nofziger, Ted Allan, Margaret Schneider, Paul Schneider)
MÚSICA: George Duning


Imagen


ARGUMENTO El más simpático cegatón que ha dado el mundo de los dibujos animados, se traslada al Oriente Medio para hacernos desternillarnos de risa con sus increíbles aventuras. A bordo de una alfombra voladora se reúne con su sobrino Aladdin, que está enamorado de la bella princesa Yasmina. Mr. Magoo prestará su colaboración en la empresa de conquistar tal belleza. La magia de oriente, genios, alfombras voladoras, tesoros y faquires se mezclan con nuestro héroe urbano, cuya ceguera lo convierte en una auténtica catástrofe con patas. (FILMAFFINITY) IMDB: https://www.imdb.com/title/tt0052527/

ImagenImagenImagen
ImagenImagen




Datos técnicos

Fuente: Ripeo sobre un DVDFull bajado de karagarga

Audios:

V.O. (Inglés): En AC-3.

Doblaje:

Español: El del estreno en cines en España de 1960 (realizado en "Voz de España"): De un TVRip encontrado en emule de su pase por TVE el 31/03/1983, titulada en esa emisión como "Las mil y una noches". Es uno de los doblaje más antiguos que se conserva (y que está accesible) de una peli de animación extranjera.

Subtítulos: En ingles en SubRip del DVDFull

Código: Seleccionar todo

General:
Complete name                    : 1959 Mr. Magoo; Las mil y una... (noches) (1001 Arabian Nights) (Jack Kinney, 1959) DVDRip Dual (Spa (Doblaje Cines 1960)-Eng) SI by DCINE.mkv
Format                           : Matroska
Format version                   : Version 4 / Version 2
File size                        : 1.68 GiB
Duration                         : 1h 15mn
Overall bit rate                 : 3 181 Kbps
Movie name                       : 1959 Mr. Magoo: Las mil y una... (Las 1001 noches)/1001 Arabian Nights (Jack Kinney, 1959) DVDRip Dual (Spa (Doblaje Cines 1960)-Eng) SI by DCINE.mkv
Encoded date                     : UTC 2020-06-12 14:12:06
Writing application              : mkvmerge v7.1.0 ('Good Love') 32bit built on Jul 27 2014 12:59:18
Writing library                  : libebml v1.3.0 + libmatroska v1.4.1
DURATION                         : 01:15:46.240000000
NUMBER_OF_FRAMES                 : 142070
NUMBER_OF_BYTES                  : 109109760
_STATISTICS_WRITING_APP          : mkvmerge v7.1.0 ('Good Love') 32bit built on Jul 27 2014 12:59:18
_STATISTICS_WRITING_DATE_UTC     : 2020-06-12 14:12:06
_STATISTICS_TAGS                 : BPS DURATION NUMBER_OF_FRAMES NUMBER_OF_BYTES

Video
ID                               : 1
Format                           : AVC
Format/Info                      : Advanced Video Codec
Format profile                   : High@L4.1
Format settings, CABAC           : Yes
Format settings, ReFrames        : 16 frames
Codec ID                         : V_MPEG4/ISO/AVC
Duration                         : 1h 15mn
Bit rate                         : 2 669 Kbps
Width                            : 712 pixels
Height                           : 462 pixels
Display aspect ratio             : 16:9
Original display aspect ratio    : 16:9
Frame rate mode                  : Variable
Frame rate                       : 23.976 fps
Color space                      : YUV
Chroma subsampling               : 4:2:0
Bit depth                        : 8 bits
Scan type                        : Progressive
Bits/(Pixel*Frame)               : 0.338
Stream size                      : 1.41 GiB (84%)
Writing library                  : x264 core 155 r2901 7d0ff22
Encoding settings                : cabac=1 / ref=16 / deblock=1:0:0 / analyse=0x3:0x133 / me=umh / subme=10 / psy=1 / psy_rd=1.00:0.00 / mixed_ref=1 / me_range=24 / chroma_me=1 / trellis=2 / 8x8dct=1 / cqm=0 / deadzone=21,11 / fast_pskip=1 / chroma_qp_offset=-2 / threads=3 / lookahead_threads=1 / sliced_threads=0 / nr=0 / decimate=1 / interlaced=0 / bluray_compat=0 / constrained_intra=0 / bframes=8 / b_pyramid=2 / b_adapt=2 / b_bias=0 / direct=3 / weightb=1 / open_gop=0 / weightp=2 / keyint=240 / keyint_min=24 / scenecut=40 / intra_refresh=0 / rc_lookahead=60 / rc=crf / mbtree=1 / crf=17.0 / qcomp=0.60 / qpmin=0 / qpmax=69 / qpstep=4 / vbv_maxrate=62500 / vbv_bufsize=78125 / crf_max=0.0 / nal_hrd=none / filler=0 / ip_ratio=1.40 / aq=1:1.00
Default                          : Yes
Forced                           : No
DURATION                         : 01:15:46.316000000
NUMBER_OF_FRAMES                 : 109002
NUMBER_OF_BYTES                  : 1550708715
_STATISTICS_WRITING_APP          : mkvmerge v7.1.0 ('Good Love') 32bit built on Jul 27 2014 12:59:18
_STATISTICS_WRITING_DATE_UTC     : 2020-06-12 14:12:06
_STATISTICS_TAGS                 : BPS DURATION NUMBER_OF_FRAMES NUMBER_OF_BYTES
Color primaries                  : BT.601-6 525, BT.1358 525, BT.1700 NTSC, SMPTE 170M
Transfer characteristics         : BT.709-5, BT.1361
Matrix coefficients              : BT.601-6 525, BT.1358 525, BT.1700 NTSC, SMPTE 170M

Audio #1
ID                               : 2
Format                           : AC-3
Format/Info                      : Audio Coding 3
Mode extension                   : CM (complete main)
Codec ID                         : A_AC3
Duration                         : 1h 15mn
Bit rate mode                    : Constant
Bit rate                         : 192 Kbps
Channel(s)                       : 1 channel
Channel positions                : Front: C
Sampling rate                    : 48.0 KHz
Bit depth                        : 16 bits
Compression mode                 : Lossy
Stream size                      : 104 MiB (6%)
Title                            : Doblaje Cines 1960
Language                         : Spanish
Default                          : Yes
Forced                           : Yes
DURATION                         : 01:15:46.304000000
NUMBER_OF_FRAMES                 : 142072
NUMBER_OF_BYTES                  : 145481728
_STATISTICS_WRITING_APP          : mkvmerge v7.1.0 ('Good Love') 32bit built on Jul 27 2014 12:59:18
_STATISTICS_WRITING_DATE_UTC     : 2020-06-12 14:12:06
_STATISTICS_TAGS                 : BPS DURATION NUMBER_OF_FRAMES NUMBER_OF_BYTES

Audio #2
ID                               : 3
Format                           : AC-3
Format/Info                      : Audio Coding 3
Mode extension                   : CM (complete main)
Codec ID                         : A_AC3
Duration                         : 1h 15mn
Bit rate mode                    : Constant
Bit rate                         : 256 Kbps
Channel(s)                       : 2 channels
Channel positions                : Front: L R
Sampling rate                    : 48.0 KHz
Bit depth                        : 16 bits
Compression mode                 : Lossy
Stream size                      : 139 MiB (8%)
Language                         : English
Default                          : No
Forced                           : No

Text
ID                               : 4
Format                           : VobSub
Muxing mode                      : zlib
Codec ID                         : S_VOBSUB
Codec ID/Info                    : The same subtitle format used on DVDs
Language                         : English
Default                          : No
Forced                           : No
DURATION                         : 01:11:53.068000000
NUMBER_OF_FRAMES                 : 1051
NUMBER_OF_BYTES                  : 1126867
_STATISTICS_WRITING_APP          : mkvmerge v7.1.0 ('Good Love') 32bit built on Jul 27 2014 12:59:18
_STATISTICS_WRITING_DATE_UTC     : 2020-06-12 14:12:06
_STATISTICS_TAGS                 : BPS DURATION NUMBER_OF_FRAMES NUMBER_OF_BYTES

Menu #1
00:00:00.149                     : :Chapter 1
00:12:50.294                     : :Chapter 2
00:26:11.094                     : :Chapter 3
00:40:09.431                     : :Chapter 4
00:54:53.815                     : :Chapter 5
01:09:06.166                     : :Chapter 6

Menu #2
00:00:00.000                     : en:Chapter 01
00:12:50.269                     : en:Chapter 02
00:26:11.069                     : en:Chapter 03
00:40:09.407                     : en:Chapter 04
00:54:53.790                     : en:Chapter 05
01:09:06.142                     : en:Chapter 06


Capturas:

Imagen Imagen
Imagen Imagen
Imagen Imagen
Imagen Imagen
Imagen Imagen



Avatar de Usuario
yojimbo
 
Mensajes: 10817
Registrado: 18 Oct 2012, 14:25
Agradecido : 10100 veces
Agradecimiento recibido: 2892 veces

Re: 1001 Arabian Nights (Jack Kinney, 1959) DVDRip Dual SI

Mensaje por yojimbo » 08 Sep 2020, 14:30

Muchas gracias, DCINE.

Avatar de Usuario
tonapar1
 
Mensajes: 5237
Registrado: 16 Oct 2012, 20:19
Agradecido : 1081 veces
Agradecimiento recibido: 1778 veces

Re: 1001 Arabian Nights (Jack Kinney, 1959) DVDRip Dual SI

Mensaje por tonapar1 » 08 Sep 2020, 20:34

Muchas gracias por el ripeo a dcine. Un saludo.

Avatar de Usuario
gatatitania
 
Mensajes: 5236
Registrado: 16 Oct 2012, 18:27
Ubicación: Gatatitania es un gato hambriento, superviviente del planeta gatatitania...
Agradecido : 2685 veces
Agradecimiento recibido: 1599 veces

Re: 1001 Arabian Nights (Jack Kinney, 1959) DVDRip Dual SI

Mensaje por gatatitania » 09 Sep 2020, 16:35

¡Gracias, DCINE! :aplauso: :aplauso: :aplauso:

Avatar de Usuario
Prudencio
 
Mensajes: 5233
Registrado: 16 Oct 2012, 18:46
Agradecido : 5586 veces
Agradecimiento recibido: 2266 veces

Re: 1001 Arabian Nights (Jack Kinney, 1959) DVDRip Dual SI

Mensaje por Prudencio » 09 Sep 2020, 19:35

¡Mr. Magoo! Hace muchos años que no veía a este personaje.
En el colegio teníamos un profesor al que apodábamos así (mira que éramos malos...).
Muchas gracias, DCINE. :hi:

Responder

Volver a “Largos Animación”