Página 1 de 1

Mononoke-hime (Hayao Miyazaki, 1997) BDRip 720p Dual SE

Publicado: 22 Dic 2013, 10:17
por jomime
Imagen
La princesa Mononoke (1997)(Animación) BDrip 720p (Dual.AC3)(Sub)

IMDb
TÍTULO ORIGINAL: Mononoke-hime (Princess Mononoke)
AÑO: 1997
DURACIÓN: 133 min.
PAÍS: Imagen
DIRECTOR: Hayao Miyazaki
GUIÓN: Hayao Miyazaki
MÚSICA: Joe Hisaishi
FOTOGRAFÍA: Animation
REPARTO: Animation
PRODUCTORA: Studio Ghibli / DENTSU Music And Entertainment / Nibariki / Nippon Television Network Corporation (NTV) / TNDG / Tokuma Shoten
GÉNERO: Animación. Fantástico. Aventuras | Animación para adultos. Cine épico

SINOPSIS:
Con el fin de curar la herida que le ha causado un jabalí enloquecido, el joven Ashitaka sale en busca del dios Ciervo, pues sólo él puede liberarlo del sortilegio. A lo largo de su periplo descubre cómo los animales del bosque luchan contra hombres que están dispuestos a destruir la Naturaleza. (FILMAFFINITY)

Código: Seleccionar todo

General
Complete name                            : La princesa Mononoke (1997) Bdrip 720p Dual x jomime..mkv
Format                                   : Matroska
Format version                           : Version 4 / Version 2
File size                                : 3.09 GiB
Duration                                 : 2h 13mn
Overall bit rate                         : 3 319 Kbps
Encoded date                             : UTC 2013-12-18 15:22:47
Writing application                      : mkvmerge v6.3.0 ('You can't stop me!') built on Jun 28 2013 20:09:41
Writing library                          : libebml v1.3.0 + libmatroska v1.4.0

Video
ID                                       : 1
Format                                   : AVC
Format/Info                              : Advanced Video Codec
Format profile                           : High@L4.1
Format settings, CABAC                   : Yes
Format settings, ReFrames                : 9 frames
Codec ID                                 : V_MPEG4/ISO/AVC
Duration                                 : 2h 13mn
Bit rate                                 : 2 485 Kbps
Width                                    : 1 280 pixels
Height                                   : 694 pixels
Display aspect ratio                     : 1.85:1
Frame rate mode                          : Constant
Frame rate                               : 23.976 fps
Color space                              : YUV
Chroma subsampling                       : 4:2:0
Bit depth                                : 8 bits
Scan type                                : Progressive
Bits/(Pixel*Frame)                       : 0.117
Stream size                              : 2.31 GiB (75%)
Writing library                          : x264 core 133 r2334 a3ac64b
Encoding settings                        : cabac=1 / ref=9 / deblock=1:-1:-1 / analyse=0x3:0x133 / me=umh / subme=10 / psy=1 / psy_rd=1.00:0.15 / mixed_ref=1 / me_range=24 / chroma_me=1 / trellis=2 / 8x8dct=1 / cqm=0 / deadzone=21,11 / fast_pskip=1 / chroma_qp_offset=-3 / threads=18 / lookahead_threads=3 / sliced_threads=0 / nr=0 / decimate=1 / interlaced=0 / bluray_compat=0 / constrained_intra=0 / bframes=8 / b_pyramid=2 / b_adapt=2 / b_bias=0 / direct=3 / weightb=1 / open_gop=0 / weightp=2 / keyint=250 / keyint_min=23 / scenecut=40 / intra_refresh=0 / rc_lookahead=60 / rc=crf / mbtree=1 / crf=19.0 / qcomp=0.60 / qpmin=0 / qpmax=69 / qpstep=4 / ip_ratio=1.40 / aq=1:1.00
Language                                 : English
Default                                  : Yes
Forced                                   : No

Audio #1
ID                                       : 2
Format                                   : AC-3
Format/Info                              : Audio Coding 3
Mode extension                           : CM (complete main)
Format settings, Endianness              : Big
Codec ID                                 : A_AC3
Duration                                 : 2h 13mn
Bit rate mode                            : Constant
Bit rate                                 : 448 Kbps
Channel count                            : 6 channels
Channel positions                        : Front: L C R, Side: L R, LFE
Sampling rate                            : 48.0 KHz
Bit depth                                : 16 bits
Compression mode                         : Lossy
Stream size                              : 427 MiB (13%)
Title                                    : Epañol
Language                                 : Spanish
Default                                  : Yes
Forced                                   : No

Audio #2
ID                                       : 3
Format                                   : AC-3
Format/Info                              : Audio Coding 3
Mode extension                           : CM (complete main)
Format settings, Endianness              : Big
Codec ID                                 : A_AC3
Duration                                 : 2h 13mn
Bit rate mode                            : Constant
Bit rate                                 : 320 Kbps
Channel count                            : 2 channels
Channel positions                        : Front: L R
Sampling rate                            : 48.0 KHz
Bit depth                                : 16 bits
Compression mode                         : Lossy
Stream size                              : 305 MiB (10%)
Title                                    : Japones
Language                                 : Japanese
Default                                  : No
Forced                                   : No

Text #1
ID                                       : 4
Format                                   : UTF-8
Codec ID                                 : S_TEXT/UTF8
Codec ID/Info                            : UTF-8 Plain Text
Title                                    : Español
Language                                 : Spanish
Default                                  : No
Forced                                   : No

Text #2
ID                                       : 5
Format                                   : UTF-8
Codec ID                                 : S_TEXT/UTF8
Codec ID/Info                            : UTF-8 Plain Text
Title                                    : Inglés
Language                                 : English
Default                                  : No
Forced                                   : No

Menu
00:00:00.000                             : ja:00:00:00.000
00:01:09.194                             : ja:00:01:09.194
00:07:31.034                             : ja:00:07:31.034
00:12:27.246                             : ja:00:12:27.246
00:18:47.376                             : ja:00:18:47.376
00:23:12.933                             : ja:00:23:12.933
00:28:48.852                             : ja:00:28:48.852
00:32:54.347                             : ja:00:32:54.347
00:38:44.781                             : ja:00:38:44.781
00:44:17.113                             : ja:00:44:17.113
00:49:39.184                             : ja:00:49:39.184
00:54:40.694                             : ja:00:54:40.694
00:59:35.864                             : ja:00:59:35.864
01:05:06.319                             : ja:01:05:06.319
01:07:44.352                             : ja:01:07:44.352
01:12:41.983                             : ja:01:12:41.983
01:17:24.431                             : ja:01:17:24.431
01:22:26.566                             : ja:01:22:26.566
01:27:24.281                             : ja:01:27:24.281
01:33:21.429                             : ja:01:33:21.429
01:38:19.143                             : ja:01:38:19.143
01:43:08.307                             : ja:01:43:08.307
01:48:14.488                             : ja:01:48:14.488
01:52:27.240                             : ja:01:52:27.240
01:57:30.210                             : ja:01:57:30.210
02:02:37.225                             : ja:02:02:37.225
02:05:21.305                             : ja:02:05:21.305
02:08:31.203                             : ja:02:08:31.203
Fuente : Full Bluray
Tamaño : 3.09 GIB
Audio : Español/Japonés
Resolución: 1280p X 694p
Subtítulos: Español/Inglés
Imagen
Imagen
Imagen
Imagen

Imagen
Imagen


eD2K link La princesa Mononoke (1997) Bdrip 720p Dual x jomime..mkv [3.09 Gb] 
Enlaces DD
Spoiler:

Re: Mononoke-hime(Hayao Miyazaki, 1997) BDRip 720p Dual SE

Publicado: 22 Dic 2013, 11:06
por janca
Gracias Jomime

Re: Mononoke-hime(Hayao Miyazaki, 1997) BDRip 720p Dual SE

Publicado: 23 Dic 2013, 01:35
por Sieglinde
Me encanta Miyazaki, y me gusta mucho esta película; va a ser una delicia verla con esta calidad, y, además, en español ( fabuloso doblaje ) o en japonés ( subtítulos que no están mal, aunque hay algunas expresiones raras; tal vez se ajusten más al texto japonés, no lo sé, aunque los del DVD estaban en un español gramaticalmente mejor ).

Muchísimas gracias, Jomime. Tus aportes son un verdadero primor.

Bajada en putlocker y puesta en el incoming.

Re: Mononoke-hime(Hayao Miyazaki, 1997) BDRip 720p Dual SE

Publicado: 23 Dic 2013, 02:56
por yogiyamada
Gracias por esta joya de la animación...
Saludos

Re: Mononoke-hime(Hayao Miyazaki, 1997) BDRip 720p Dual SE

Publicado: 23 Dic 2013, 07:54
por ciberyago
gracias Jomine!!!

Re: Mononoke-hime (Hayao Miyazaki, 1997) BDRip 720p Dual SE

Publicado: 14 Sep 2016, 13:22
por rrreeevvv
Gracias por la película, de las que vi, la que más me gustó de Miyazaki. Pero gracias también por todas las demas de Miyazaki que trajista.