Vampiros en La Habana (Juan Padrón, 1985) DVDRip VO

Puntuación
Sin
puntuar

Moderador: yogiyamada

Reglas del Foro
Norma de los tres años.
Responder
gilles
 
Mensajes: 533
Registrado: 21 Ene 2013, 11:15
Agradecido : 31 veces
Agradecimiento recibido: 261 veces

Cuba Vampiros en La Habana (Juan Padrón, 1985) DVDRip VO

Mensaje por gilles » 17 Feb 2013, 15:26

Vampiros en La Habana (Juan padron, 1985)


Imagen

IMDb

Sinopsis

Un científico vampiro ha creado una pócima revolucionaria, el Vampisol. Este elixir permite a los vampiros realizar algo para ellos hasta entonces imposible, pasear bajo la luz del Sol. En cuanto la noticia llega a oidos de los grandes clanes de vampiros, todos viajan a La Habana para hacerse con el control de la fórmula. Los estirados y siniestros vampiros europeos, y los mafiosos vampiros norteamericanos. Pepito, un trompetista sobrino del creador de Vampisol será perseguido por ambos grupos desde que se le encarga la custodia de la fórmula.

Ficha artística

AÑO
1985
DURACIÓN
73 min
PAÍS
Cuba
DIRECTOR
Juan Padron
GUIÓN
Juan Padron
MÚSICA
Manuel Duchesne Cuzán
FOTOGRAFÍA
Julio Simoneau
PRODUCTORA
ICAIC
GÉNERO
Comedia

Código: Seleccionar todo

Format                                   : AVI
Format/Info                              : Audio Video Interleave
File size                                : 1.08 GiB
Duration                                 : 1h 12mn
Overall bit rate                         : 2 142 Kbps

Video
ID                                       : 0
Format                                   : AVC
Format/Info                              : Advanced Video Codec
Format profile                           : High@L3.0
Format settings, CABAC                   : Yes
Format settings, ReFrames                : 3 frames
Codec ID                                 : H264
Duration                                 : 1h 12mn
Bit rate                                 : 2 000 Kbps
Width                                    : 688 pixels
Height                                   : 464 pixels
Display aspect ratio                     : 4:3
Frame rate mode                          : Variable
Frame rate                               : 29.970 fps
Color space                              : YUV
Chroma subsampling                       : 4:2:0
Bit depth                                : 8 bits
Scan type                                : Progressive
Bits/(Pixel*Frame)                       : 0.209
Stream size                              : 1.01 GiB (93%)
Writing library                          : x264 core 120 r2151 a3f4407
Encoding settings                        : cabac=1 / ref=4 / deblock=1:0:0 / analyse=0x3:0x113 / me=umh / subme=7 / psy=1 / psy_rd=1,00:0,00 / mixed_ref=1 / me_range=24 / chroma_me=1 / trellis=2 / 8x8dct=1 / cqm=0 / deadzone=21,11 / fast_pskip=0 / chroma_qp_offset=-2 / threads=3 / sliced_threads=0 / nr=0 / decimate=1 / interlaced=0 / bluray_compat=0 / constrained_intra=0 / bframes=16 / b_pyramid=1 / b_adapt=1 / b_bias=0 / direct=3 / weightb=1 / open_gop=0 / weightp=2 / keyint=250 / keyint_min=25 / scenecut=40 / intra_refresh=0 / rc_lookahead=40 / rc=2pass / mbtree=1 / bitrate=2000 / ratetol=1,0 / qcomp=0,60 / qpmin=10 / qpmax=51 / qpstep=4 / cplxblur=20,0 / qblur=0,5 / ip_ratio=1,40 / aq=1:1,00

Audio
ID                                       : 1
Format                                   : MPEG Audio
Format version                           : Version 1
Format profile                           : Layer 3
Codec ID                                 : 55
Codec ID/Hint                            : MP3
Duration                                 : 1h 12mn
Bit rate mode                            : Constant
Bit rate                                 : 128 Kbps
Channel(s)                               : 2 channels
Sampling rate                            : 48.0 KHz
Compression mode                         : Lossy
Stream size                              : 66.2 MiB (6%)
Alignment                                : Split accross interleaves
Interleave, duration                     : 24 ms (0.72 video frame)
Capturas de pantalla

Imagen
Imagen
Imagen
Imagen

eD2K link Vampiros En La Habana 1985 Juan Padron.avi [1.08 Gb] 
Última edición por gilles el 24 Abr 2013, 16:42, editado 2 veces en total.

Avatar de Usuario
Ottto
 
Mensajes: 186
Registrado: 16 Oct 2012, 15:08
Agradecimiento recibido: 1 vez

Re: Vampiros en La Habana (Juan Padrón, 1985) DVDRip VO

Mensaje por Ottto » 17 Feb 2013, 20:08

Muchas gracias, mi tío siempre me hablaba de esta película. Le gustará volver a verla.

Avatar de Usuario
maurito093
 
Mensajes: 46
Registrado: 19 Nov 2012, 02:48
Ubicación: Buenos Aires, Argentina
Contactar:

Re: Vampiros en La Habana (Juan Padrón, 1985) DVDRip VO

Mensaje por maurito093 » 17 Feb 2013, 23:22

Mas que interesante, espero que baje rápido, gracias!
"Y mi alma, del fondo de esa sombra que flota sobre el suelo, no podrá liberarse. ¡Nunca más!"

ciberyago
 
Mensajes: 2272
Registrado: 20 Oct 2012, 07:26
Agradecimiento recibido: 346 veces

Re: Vampiros en La Habana (Juan Padrón, 1985) DVDRip VO

Mensaje por ciberyago » 18 Feb 2013, 08:38

Muchas gracias Gilles!

rrreeevvv
 
Mensajes: 259
Registrado: 13 Ene 2013, 00:45
Agradecido : 395 veces
Agradecimiento recibido: 320 veces

Re: Vampiros en La Habana (Juan Padrón, 1985) DVDRip VO

Mensaje por rrreeevvv » 18 Feb 2013, 14:26

Muchas gracias.

Avatar de Usuario
yogiyamada
 
Mensajes: 792
Registrado: 02 Oct 2012, 20:44
Agradecido : 57 veces
Agradecimiento recibido: 302 veces

Re: Vampiros en La Habana (Juan Padrón, 1985) DVDRip VO

Mensaje por yogiyamada » 10 Mar 2013, 02:20

Excelente aporte, felicidades.
Aportemos todos a que el Cine hable al alma al compartirlo libremente.

Avatar de Usuario
Manymac
 
Mensajes: 17
Registrado: 24 Mar 2013, 23:04
Agradecimiento recibido: 1 vez

Re: Vampiros en La Habana (Juan Padrón, 1985) DVDRip VO

Mensaje por Manymac » 13 Nov 2013, 19:13

Casi se me pasa... muchas gracias gilles

Responder

Volver a “Largos Animación”