Página 1 de 1

The Many Adventures of Winnie the Pooh (Reitherman, Lounsbery, 1977) BDRip 720p Trial SE-I

Publicado: 11 Sep 2020, 07:21
por DCINE
Lo mejor de Winnie the Pooh
(The Many Adventures of Winnie the Pooh)

1977

Imagen



DIRECTOR: Wolfgang Reitherman, John Lounsbery
PRODUCTORA: Walt Disney Productions
GUIÓN: Libros: A.A. Milne
MÚSICA: Canciones: Richard M. Sherman, Robert B. Sherman





ARGUMENTO El osito Pooh es el mejor amigo que puedes dar a tus hijos. Con él aprenderán valores como la amistad, el compañerismo y la generosidad. Ideal para niños de 2 a 7 años. Siguiendo la tradición de las grandes obras maestras de Disney como Cenicienta y Peter Pan, llega el Clásico animado nº 22 de Walt Disney inspirado en las fantásticas historias de A.A. Milne. En este vídeo encontrarás una recopilación de las mejores aventuras de Winnie The Pooh, creadas por el propio Walt Disney. Contiene: Winnie The Pooh y el Arbol de la Miel, Winnie The Pooh y el Bosque Encantado, ganadora de un Oscar © al Mejor Corto Animado y "Winnie The Pooh... ¡ Y Tigger También!. Disfruta con Pooh y sus amigos de las más intrépidas aventuras en el bosque de los Cien Acres. -información de la distribuidora- (FILMAFFINITY) IMDB: https://www.imdb.com/title/tt0076363/



Datos técnicos

Fuente: Ripeo de xfiles procedente de rutracker

Audio: V.O. (Inglés) en AC-3

Doblajes:

Español: Dos audios

Doblaje Edmundo Santos (1966, 1968 y 1974): Se trata de una sincro especial (no es un audio oficial) de los doblaje que se hicieron para los cortos originales que conforman la peli que son:

Winnie Pooh y el árbol de miel, Winnie The Pooh en el bosque encantado y Winnie The Pooh... ¡y Tigger también!

Fichas de doblaje de los cortos: https://doblaje.fandom.com/es/wiki/Cort ... e-The-Pooh

Los audios proceden de los ripeos compartidos por Tecno10 y kojak79 en ExploradoresP2P. Para las escenas añadidas que intercalan los cortos he usado el doblaje de 1998.

El de video realizado en México en 1998: De un ripeo encontrado en emule. Este es el doblaje oficial y el primero que se hizo.

Subtítulos: Españoles de opensubtitles e ingleses ya incluidos

Código: Seleccionar todo

Complete name                    : 1977 Lo mejor de Winnie the Pooh (The Many Adventures of...) (AR 1.66) BDRip 720p (Spa (Doblaje E. Santos (66, 68 y 74)- 98)-Eng) SE-I by xfiles-DCINE.mkv
Format                           : Matroska
Format version                   : Version 4 / Version 2
File size                        : 2.33 GiB
Duration                         : 1h 14mn
Overall bit rate                 : 4 500 Kbps
Movie name                       : 1977 Lo mejor de Winnie the Pooh/The Many Adventures of Winnie the Pooh (Wolfgang Reitherman, John Lounsbery, 1977) (AR 1.66) BDRip 720p Dual (Spa (Doblaje Edmndo Santos (1966, 1968 y 1974)/Doblaje Neutro Mexicano para video de 1998)-Eng) SE-I by xfiles-DCINE.mkv
Encoded date                     : UTC 2020-07-14 10:54:46
Writing application              : mkvmerge v7.1.0 ('Good Love') 32bit built on Jul 27 2014 12:59:18
Writing library                  : libebml v1.3.0 + libmatroska v1.4.1
_STATISTICS_WRITING_APP          : mkvmerge v7.1.0 ('Good Love') 32bit built on Jul 27 2014 12:59:18
_STATISTICS_WRITING_DATE_UTC     : 2020-07-14 10:54:46
_STATISTICS_TAGS                 : BPS DURATION NUMBER_OF_FRAMES NUMBER_OF_BYTES
DURATION                         : 01:12:01.417000000
NUMBER_OF_FRAMES                 : 152
NUMBER_OF_BYTES                  : 8028

Video
ID                               : 1
Format                           : AVC
Format/Info                      : Advanced Video Codec
Format profile                   : High@L4.1
Format settings, CABAC           : Yes
Format settings, ReFrames        : 9 frames
Codec ID                         : V_MPEG4/ISO/AVC
Duration                         : 1h 14mn
Bit rate                         : 3 130 Kbps
Width                            : 1 194 pixels
Height                           : 720 pixels
Display aspect ratio             : 1.658
Frame rate                       : 23.976 fps
Color space                      : YUV
Chroma subsampling               : 4:2:0
Bit depth                        : 8 bits
Scan type                        : Progressive
Bits/(Pixel*Frame)               : 0.152
Stream size                      : 1.62 GiB (70%)
Title                            : BDRip 720p / xfiles / РГ Мультфильмы / rutracker.org
Writing library                  : x264 core 130 r2273kMod b3065e6
Encoding settings                : cabac=1 / ref=9 / deblock=1:-1:-1 / analyse=0x3:0x113 / me=umh / subme=11 / psy=1 / fade_compensate=0.00 / psy_rd=1.00:0.00 / mixed_ref=1 / me_range=32 / chroma_me=1 / trellis=2 / 8x8dct=1 / cqm=0 / deadzone=21,11 / fast_pskip=0 / chroma_qp_offset=-2 / threads=6 / lookahead_threads=1 / sliced_threads=0 / nr=0 / decimate=1 / interlaced=0 / bluray_compat=0 / constrained_intra=0 / bframes=10 / b_pyramid=2 / b_adapt=2 / b_bias=0 / direct=1 / weightb=1 / open_gop=0 / weightp=2 / keyint=250 / keyint_min=23 / scenecut=40 / intra_refresh=0 / rc_lookahead=70 / rc=crf / mbtree=0 / crf=16.5000 / qcomp=0.60 / qpmin=0 / qpmax=69 / qpstep=4 / vbv_maxrate=50000 / vbv_bufsize=62500 / crf_max=0.0 / nal_hrd=none / ip_ratio=1.40 / pb_ratio=1.30 / aq=1:1.00
Language                         : English
Default                          : Yes
Forced                           : No
Color primaries                  : BT.709-5, BT.1361, IEC 61966-2-4, SMPTE RP177
Transfer characteristics         : BT.709-5, BT.1361
Matrix coefficients              : BT.709-5, BT.1361, IEC 61966-2-4 709, SMPTE RP177

Audio #1
ID                               : 2
Format                           : AC-3
Format/Info                      : Audio Coding 3
Mode extension                   : CM (complete main)
Codec ID                         : A_AC3
Duration                         : 1h 14mn
Bit rate mode                    : Constant
Bit rate                         : 192 Kbps
Channel(s)                       : 1 channel
Channel positions                : Front: C
Sampling rate                    : 48.0 KHz
Bit depth                        : 16 bits
Compression mode                 : Lossy
Stream size                      : 102 MiB (4%)
Title                            : Doblaje Edmundo Santos (1966, 1968 y 1974)
Language                         : Spanish
Default                          : Yes
Forced                           : Yes

Audio #2
ID                               : 3
Format                           : AC-3
Format/Info                      : Audio Coding 3
Mode extension                   : CM (complete main)
Codec ID                         : A_AC3
Duration                         : 1h 14mn
Bit rate mode                    : Constant
Bit rate                         : 448 Kbps
Channel(s)                       : 6 channels
Channel positions                : Front: L C R, Side: L R, LFE
Sampling rate                    : 48.0 KHz
Bit depth                        : 16 bits
Compression mode                 : Lossy
Stream size                      : 237 MiB (10%)
Title                            : Doblaje Neutro Mexicano para video de 1998
Language                         : Spanish
Default                          : No
Forced                           : No

Audio #3
ID                               : 4
Format                           : AC-3
Format/Info                      : Audio Coding 3
Mode extension                   : CM (complete main)
Codec ID                         : A_AC3
Duration                         : 1h 14mn
Bit rate mode                    : Constant
Bit rate                         : 640 Kbps
Channel(s)                       : 6 channels
Channel positions                : Front: L C R, Side: L R, LFE
Sampling rate                    : 48.0 KHz
Bit depth                        : 16 bits
Compression mode                 : Lossy
Stream size                      : 339 MiB (14%)
Title                            : Original
Language                         : English
Default                          : No
Forced                           : No

Text #1
ID                               : 5
Format                           : UTF-8
Codec ID                         : S_TEXT/UTF8
Codec ID/Info                    : UTF-8 Plain Text
Language                         : Spanish
Default                          : No
Forced                           : No

Text #2
ID                               : 6
Format                           : UTF-8
Codec ID                         : S_TEXT/UTF8
Codec ID/Info                    : UTF-8 Plain Text
Title                            : Full
Language                         : English
Default                          : No
Forced                           : No

Text #3
ID                               : 7
Format                           : UTF-8
Codec ID                         : S_TEXT/UTF8
Codec ID/Info                    : UTF-8 Plain Text
Title                            : Pooh's Pop-Up Fun Facts
Language                         : English
Default                          : No
Forced                           : No

Menu
00:00:00.000                     : en:01. Open Credits / "Winnie the Pooh"
00:03:14.360                     : en:02. Winnie the Pooh and the Honey Tree
00:04:04.243                     : en:03. "Up, Down, Touch the Ground"
00:05:59.734                     : en:04. "Rumbly in My Tumbly"
00:07:38.332                     : en:05. "Little Black Rain Cloud"
00:13:47.827                     : en:06. Pooh Pays a Visit to Rabbit
00:16:43.585                     : en:07. Owl Tries to Help
00:19:14.319                     : en:08. Pooh Remains Stuck
00:23:37.541                     : en:09. Today Is the Day!
00:25:49.714                     : en:10. Winnie the Pooh and the Blustery Day
00:30:10.892                     : en:11. Piglet and Pooh Visit Owl
00:33:02.480                     : en:12. A Blustery Night and a New Arrival
00:36:36.569                     : en:13. "The Wonderful Thing About Tiggers"
00:36:51.709                     : en:14. "Heffalumps and Woozles"
00:41:20.311                     : en:15. "The Rain, Rain, Rain, Came Down, Down, Down"
00:45:12.000                     : en:16. A Hero Party ("Hip Hooray for Winnie the Pooh")
00:49:33.720                     : en:17. Winnie the Pooh and Tigger Too
00:55:36.958                     : en:18. Lost!
01:00:29.125                     : en:19. The First Snowfall
01:04:10.972                     : en:20. Pooh Is Having a Problem
01:11:35.749                     : en:21. The Final Chapter


Capturas:

Imagen Imagen
Imagen Imagen
Imagen Imagen
Imagen Imagen
Imagen Imagen







Re: The Many Adventures of Winnie the Pooh (Reitherman, Lounsbery, 1977) BDRip 720p Trial SE-I

Publicado: 11 Sep 2020, 15:28
por yojimbo
Muchas gracias, DCINE, Tecno10 y kojak79.

Re: The Many Adventures of Winnie the Pooh (Reitherman, Lounsbery, 1977) BDRip 720p Trial SE-I

Publicado: 14 Sep 2020, 14:26
por tonapar1
Muchas gracias por el ripeo a DCINE, Tecno10 y kojak79. Un saludo a todos ellos.