Los cuatro músicos de Bremen (Cruz Delgado, 1988) HDTV 720p VO

Puntuación
10/10
1 voto

Moderador: yogiyamada

Reglas del Foro
Norma de los tres años.
Responder
Avatar de Usuario
DCINE
 
Mensajes: 1721
Registrado: 30 Jul 2016, 20:09
Agradecido : 794 veces
Agradecimiento recibido: 3458 veces

España Los cuatro músicos de Bremen (Cruz Delgado, 1988) HDTV 720p VO

Mensaje por DCINE » 06 Ene 2020, 08:00

Los cuatro músicos de Bremen
1988

Imagen



DIRECTOR: Cruz Delgado
PRODUCTORA: Estudios Cruz Delgado
GUIÓN: Gustavo Alcalde
MÚSICA: Manuel Pacho







ARGUMENTO La aventura empieza en un corral, Koky, un gallo amante de la música se pasa las noches bailando. Al amanecer, se duerme y no canta. Perseguido por el granjero, Koky huye de la granja. Poco después, se encuentra a un pequeño asno (Tonto), ingenuo y bonachón a quien su ama trata cruelmente. Koky convence a Tonto para que se vaya con él a correr aventuras. Los dos amigos traban amistad con Lupo, el perro de un músico ambulante. Lupo tiene inquietudes musicales y desea formar un conjunto para participar en un concurso que ha de celebrarse en Bremen. Cansado de la vida que le da su amo, Lupo se une a Koky y a Tonto. Los tres se dirigen a Bremen, pero les sorprende la noche. En un caserón de aspecto misterioso buscan cobijo y allí conocen a Burlón, un gato vagabundo. Entre tanto, unos ladrones roban al burgomaestre de la ciudad el premio del concurso. (FILMAFFINITY) IMDB: https://www.imdb.com/title/tt0096742/


Reparto: Rafael Alonso Naranjo Jr., Gonzalo Durán, Eduardo Jover, Claudio Serrano, Simón Ramírez, Luis Marín, Valle Acebrón, Pilar Gentil, Pilar Coronado, José Luis Baltanás, Ana María Saizar

Datos técnicos

Ripeo de la reciente emisión por TVE-2. Copia restaurada mejorando la antigua edición en DVD. Los últimos 2 min son un reescalado del DVD porque en la emisión cortaron los créditos finales

Hay 4 pista de audio en el siguiente orden:
Audio DVD: procedente del DVD de Suevia, debido a que el audio emitido era horrible.
Mezcla Audio DVD + Audio Emision: Una mezcla que dejo como curiosidad, ya que cuando sincronicé el audio del DVD lo escuché a la vez con el audio de la emisión y el efecto que creaba era muy curioso.
Audio Emision: Como curiosidad para que os hagáis una idea de como fue el audio que emitieron.
Audio DVD con la voz audiodescriptiva: para personas ciegas.

Código: Seleccionar todo

General:

Complete name                    : 1988 Los cuatro músicos de Bremen (Cruz Delgado, 1988) HDTV 720p VO by DCINE.mkv
Format                           : Matroska
Format version                   : Version 4 / Version 2
File size                        : 2.03 GiB
Duration                         : 1h 22mn
Overall bit rate                 : 3 510 Kbps
Movie name                       : 1988 Los cuatro músicos de Bremen (Cruz Delgado, 1988) HDTV 720p VO by DCINE.mkv
Encoded date                     : UTC 2020-01-05 08:42:49
Writing application              : mkvmerge v7.1.0 ('Good Love') 32bit built on Jul 27 2014 12:59:18
Writing library                  : Lavf54.63.104
_STATISTICS_WRITING_APP          : mkvmerge v7.1.0 ('Good Love') 32bit built on Jul 27 2014 12:59:18
_STATISTICS_WRITING_DATE_UTC     : 2020-01-05 08:42:49
_STATISTICS_TAGS                 : BPS DURATION NUMBER_OF_FRAMES NUMBER_OF_BYTES
DURATION                         : 01:22:50.208000000
NUMBER_OF_FRAMES                 : 155319
NUMBER_OF_BYTES                  : 119284992

Video
ID                               : 1
Format                           : AVC
Format/Info                      : Advanced Video Codec
Format profile                   : High@L5.0
Format settings, CABAC           : Yes
Format settings, ReFrames        : 16 frames
Codec ID                         : V_MPEG4/ISO/AVC
Duration                         : 1h 22mn
Bit rate                         : 2 673 Kbps
Width                            : 960 pixels
Height                           : 720 pixels
Display aspect ratio             : 4:3
Frame rate                       : 25.000 fps
Color space                      : YUV
Chroma subsampling               : 4:2:0
Bit depth                        : 8 bits
Scan type                        : Progressive
Bits/(Pixel*Frame)               : 0.155
Stream size                      : 1.55 GiB (76%)
Writing library                  : x264 core 155 r2901 7d0ff22
Encoding settings                : cabac=1 / ref=16 / deblock=1:0:0 / analyse=0x3:0x133 / me=umh / subme=10 / psy=1 / psy_rd=1.00:0.00 / mixed_ref=1 / me_range=24 / chroma_me=1 / trellis=2 / 8x8dct=1 / cqm=0 / deadzone=21,11 / fast_pskip=1 / chroma_qp_offset=-2 / threads=3 / lookahead_threads=1 / sliced_threads=0 / nr=0 / decimate=1 / interlaced=0 / bluray_compat=0 / constrained_intra=0 / bframes=8 / b_pyramid=2 / b_adapt=2 / b_bias=0 / direct=3 / weightb=1 / open_gop=0 / weightp=2 / keyint=250 / keyint_min=25 / scenecut=40 / intra_refresh=0 / rc_lookahead=60 / rc=crf / mbtree=1 / crf=19.0 / qcomp=0.60 / qpmin=0 / qpmax=69 / qpstep=4 / ip_ratio=1.40 / aq=1:1.00
Default                          : Yes
Forced                           : No
_STATISTICS_WRITING_APP          : mkvmerge v7.1.0 ('Good Love') 32bit built on Jul 27 2014 12:59:18
_STATISTICS_WRITING_DATE_UTC     : 2020-01-05 08:42:49
_STATISTICS_TAGS                 : BPS DURATION NUMBER_OF_FRAMES NUMBER_OF_BYTES
DURATION                         : 01:22:49.800000000
NUMBER_OF_FRAMES                 : 124233
NUMBER_OF_BYTES                  : 1702167453

Audio #1
ID                               : 2
Format                           : AC-3
Format/Info                      : Audio Coding 3
Mode extension                   : CM (complete main)
Codec ID                         : A_AC3
Duration                         : 1h 22mn
Bit rate mode                    : Constant
Bit rate                         : 192 Kbps
Channel(s)                       : 2 channels
Channel positions                : Front: L R
Sampling rate                    : 48.0 KHz
Bit depth                        : 16 bits
Compression mode                 : Lossy
Delay relative to video          : -400ms
Stream size                      : 114 MiB (5%)
Title                            : Audio DVD (Alta calidad de sonido)
Language                         : Spanish
Default                          : Yes
Forced                           : Yes

Audio #2
ID                               : 3
Format                           : AC-3
Format/Info                      : Audio Coding 3
Mode extension                   : CM (complete main)
Codec ID                         : A_AC3
Duration                         : 1h 22mn
Bit rate mode                    : Constant
Bit rate                         : 192 Kbps
Channel(s)                       : 2 channels
Channel positions                : Front: L R
Sampling rate                    : 48.0 KHz
Bit depth                        : 16 bits
Compression mode                 : Lossy
Delay relative to video          : -400ms
Stream size                      : 114 MiB (5%)
Title                            : Mezcla Audio DVD + Audio Emisión
Language                         : Spanish
Default                          : No
Forced                           : No

Audio #3
ID                               : 4
Format                           : AC-3
Format/Info                      : Audio Coding 3
Mode extension                   : CM (complete main)
Codec ID                         : A_AC3
Duration                         : 1h 22mn
Bit rate mode                    : Constant
Bit rate                         : 192 Kbps
Channel(s)                       : 2 channels
Channel positions                : Front: L R
Sampling rate                    : 48.0 KHz
Bit depth                        : 16 bits
Compression mode                 : Lossy
Delay relative to video          : -400ms
Stream size                      : 114 MiB (5%)
Title                            : Audio Emisión (Baja calidad de sonido)
Language                         : Spanish
Default                          : No
Forced                           : No

Audio #4
ID                               : 5
Format                           : AC-3
Format/Info                      : Audio Coding 3
Mode extension                   : CM (complete main)
Codec ID                         : A_AC3
Duration                         : 1h 22mn
Bit rate mode                    : Constant
Bit rate                         : 192 Kbps
Channel(s)                       : 2 channels
Channel positions                : Front: L R
Sampling rate                    : 48.0 KHz
Bit depth                        : 16 bits
Compression mode                 : Lossy
Delay relative to video          : -400ms
Stream size                      : 114 MiB (5%)
Title                            : Audio DVD Audiodescriptivo (Alta calidad de sonido)
Language                         : Spanish
Default                          : No
Forced                           : No



Capturas:

Imagen Imagen
Imagen Imagen
Imagen Imagen
Imagen Imagen
Imagen Imagen









Enlace:

eD2K link 1988 Los cuatro músicos de Bremen (Cruz Delgado, 1988) HDTV 720p VO by DCINE.mkv [2.03 Gb] 

DD:

https://drive.google.com/open?id=12MPPw ... KSgNzQFH4K

Avatar de Usuario
yojimbo
 
Mensajes: 10790
Registrado: 18 Oct 2012, 14:25
Agradecido : 10065 veces
Agradecimiento recibido: 2882 veces

Re: Los cuatro músicos de Bremen (Cruz Delgado, 1988) HDTV 720p VO

Mensaje por yojimbo » 06 Ene 2020, 13:00

Muchas gracias, DCINE.

Avatar de Usuario
toerless
 
Mensajes: 1004
Registrado: 16 Oct 2012, 16:27
Agradecido : 126 veces
Agradecimiento recibido: 449 veces

Re: Los cuatro músicos de Bremen (Cruz Delgado, 1988) HDTV 720p VO

Mensaje por toerless » 06 Ene 2020, 17:09

¡Lo mismo digo!

Avatar de Usuario
yogiyamada
 
Mensajes: 992
Registrado: 02 Oct 2012, 20:44
Agradecido : 208 veces
Agradecimiento recibido: 407 veces

Re: Los cuatro músicos de Bremen (Cruz Delgado, 1988) HDTV 720p VO

Mensaje por yogiyamada » 07 Ene 2020, 02:31

Excelente, que buena pinta tiene. Gracias mil.
Aportemos todos a que el Cine hable al alma al compartirlo libremente.

Avatar de Usuario
tonapar1
 
Mensajes: 5218
Registrado: 16 Oct 2012, 20:19
Agradecido : 1081 veces
Agradecimiento recibido: 1769 veces

Re: Los cuatro músicos de Bremen (Cruz Delgado, 1988) HDTV 720p VO

Mensaje por tonapar1 » 07 Ene 2020, 18:43

Muchas gracias por el ripeo a dcine. Un saludo.

Avatar de Usuario
gatatitania
 
Mensajes: 5236
Registrado: 16 Oct 2012, 18:27
Ubicación: Gatatitania es un gato hambriento, superviviente del planeta gatatitania...
Agradecido : 2685 veces
Agradecimiento recibido: 1599 veces

Re: Los cuatro músicos de Bremen (Cruz Delgado, 1988) HDTV 720p VO

Mensaje por gatatitania » 07 Ene 2020, 23:43

Ahora que la animación española está de tiros largos, es de ley reconocer sus méritos a los precursores como Cruz Delgado ¡Gracias, DCINE! :amo: :amo: :amo:

Avatar de Usuario
sete
 
Mensajes: 4716
Registrado: 22 Dic 2012, 16:10
Agradecido : 239 veces
Agradecimiento recibido: 1474 veces

Re: Los cuatro músicos de Bremen (Cruz Delgado, 1988) HDTV 720p VO

Mensaje por sete » 09 Ene 2020, 17:28

Muchas gracias, DCINE.
:hi:
Este mundo está traicionando a la vida.
José Luis Sampedro

Responder

Volver a “Largos Animación”