Nagagutsu o haita neko: Hachijû nichikan sekai isshû (Hiroshi Shidara, 1976) BDRip 1080p VOSE + AE

Puntuación
7/10
1 voto

El gato con botas da la vuelta al mundo

Moderador: yogiyamada

Reglas del Foro
Norma de los tres años.
Responder
Avatar de Usuario
yogiyamada
 
Mensajes: 992
Registrado: 02 Oct 2012, 20:44
Agradecido : 208 veces
Agradecimiento recibido: 407 veces

Japón Nagagutsu o haita neko: Hachijû nichikan sekai isshû (Hiroshi Shidara, 1976) BDRip 1080p VOSE + AE

Mensaje por yogiyamada » 14 Dic 2019, 23:51

El gato con botas da la vuelta al mundo

Imagen
Imagen
Imagen

SINOPSIS

En ésta su tercera aventura, el Gato con Botas se encuentra trabajando como camarero en un restaurante de Londres donde se ha dado a conocer como Tacho y ha encontrado a su nuevo amigo Hipo, torpe cocinero pero fiel y servicial compañero. Cómo no, también es apreciado por los ratones del lugar que prestan a Tacho toda su ayuda. Durante una conversación en el restaurante con el director del London Times y otros comensales, el snob y maleducado millonario Puerquett impone de malas formas su opinión sobre la imposibilidad de dar la vuelta al mundo en 150 días, pero Tacho, al tanto de la conversación, interviene e insiste en que él podría realizarla incluso en tan sólo 80. Puerquett apuesta toda su fortuna contra la esclavitud de por vida de Tacho ante este reto. Pero nuestro protagonista tiene otros problemas aparte de ganar la apuesta ya que nuevamente aparecen sus tres imparables perseguidores gatunos dispuestos a liquidarle. Esta circunstancia es aprovechada por Puerquett para enviar a un ruin sicario, el Doctor Gori-Gori, a ayudar a los tres gatos a quitar en medio a Tacho, asegurándose así de ganar la apuesta. (FILMAFFINITY)

FICHA ARTÍSTICA

Año
1976
Duración
68 min.
País
Japón
Dirección
Hiroshi Shidara
Guion
Yamazaki Tadaaki (Libro: Jacob Grimm)
Música
Seiichiro Uno
Fotografía
suchida Isamu
Género: Fantasía, comedia, musical.
Productora
Toei Animation

Reparto (voces)
Chijimatsu Sachiko, Kamiyama Takuzou, Ootsuka Chikao, Masuyama Eiko, Nabe Osami, Yamada Shunji, Hase Sanji, Tanonaka Isamu.

COMENTARIO PERSONAL
Secuela de Nagagutsu Sanjuushi y adaptando libremente la obra de Grimm, esta vez con una aventura archiconocida. Otra vez una historia simple, muy bien narrada, con una animación fluida y un acting de calidad, tal vez el mejor de los tres. Entretenida, dinámica, divertida logra mantener el ritmo.
Fue realizada por Hiroshi Shidara, conocido por la series de TV Chiquitina , Candy Candy , La aldea del arce y Ángel, la niña de las flores.
Los subt en español son del dvd que circulaba en la red adaptados a este rip de las copias de Amazon. También dejo un doblaje en español latino no sincronizado con esta copia.

DATOS TÉCNICOS

Código: Seleccionar todo

Format                      : MPEG-4
Format profile              : Base Media
Codec ID                    : isom (isom)
File size                   : 1.40 GiB
Duration                    : 1 h 8 min
Overall bit rate            : 2 929 kb/s
Encoded date                : UTC 2019-06-02 22:26:31
Tagged date                 : UTC 2019-06-02 22:26:31

Video
ID                          : 1
Format                      : AVC
Format/Info                 : Advanced Video Codec
Format profile              : High@L4.1
Format settings             : CABAC / 4 Ref Frames
Format settings, CABAC      : Yes
Format settings, ReFrames   : 4 frames
Codec ID                    : avc1
Codec ID/Info               : Advanced Video Coding
Duration                    : 1 h 8 min
Bit rate                    : 2 799 kb/s
Maximum bit rate            : 16.5 Mb/s
Width                       : 1 920 pixels
Height                      : 816 pixels
Display aspect ratio        : 2.35:1
Frame rate mode             : Constant
Frame rate                  : 23.976 (24000/1001) FPS
Color space                 : YUV
Chroma subsampling          : 4:2:0
Bit depth                   : 8 bits
Scan type                   : Progressive
Bits/(Pixel*Frame)          : 0.075
Stream size                 : 1.34 GiB (96%)
Writing library             : x264 core 155 r2901 7d0ff22
Encoding settings           : cabac=1 / ref=4 / deblock=1:0:0 / analyse=0x3:0x133 / me=hex / subme=7 / psy=1 / psy_rd=0.40:0.00 / mixed_ref=1 / me_range=16 / chroma_me=1 / trellis=2 / 8x8dct=1 / cqm=0 / deadzone=21,11 / fast_pskip=0 / chroma_qp_offset=-2 / threads=4 / lookahead_threads=1 / sliced_threads=0 / nr=0 / decimate=1 / interlaced=0 / bluray_compat=0 / constrained_intra=0 / bframes=4 / b_pyramid=2 / b_adapt=2 / b_bias=0 / direct=1 / weightb=1 / open_gop=0 / weightp=2 / keyint=240 / keyint_min=23 / scenecut=40 / intra_refresh=0 / rc_lookahead=60 / rc=abr / mbtree=1 / bitrate=2799 / ratetol=1.0 / qcomp=0.60 / qpmin=0 / qpmax=69 / qpstep=4 / ip_ratio=1.40 / aq=1:0.60
Encoded date                : UTC 2019-06-02 22:04:15
Tagged date                 : UTC 2019-06-02 22:26:38

Audio
ID                          : 2
Format                      : MPEG Audio
Format version              : Version 1
Format profile              : Layer 3
Format settings             : Joint stereo / MS Stereo
Codec ID                    : .mp3
Duration                    : 1 h 8 min
Bit rate mode               : Constant
Bit rate                    : 128 kb/s
Maximum bit rate            : 134 kb/s
Channel(s)                  : 2 channels
Sampling rate               : 44.1 kHz
Frame rate                  : 38.281 FPS (1152 SPF)
Compression mode            : Lossy
Stream size                 : 62.7 MiB (4%)
Writing library             : LAME3.99
Language                    : English
Encoded date                : UTC 2019-06-02 22:26:36
Tagged date                 : UTC 2019-06-02 22:26:38

CAPTURAS

Imagen
Imagen
Imagen
Imagen
Imagen
Imagen
eD2K link Nagagutsu o haita neko Hachiju nichikan sekai isshu.mp4 [1.40 Gb] 
Subtítulos en español sincronizados por yogiyamada
eD2K link Nagagutsu o haita neko Hachiju nichikan sekai isshu.srt [52.9 Kb] 
El audio español latino sincronizado Gracias a angelgarrido
eD2K link [El gato con botas da la vuelta al mundo_Audio sincronizado-by angelgarrido]
Aportemos todos a que el Cine hable al alma al compartirlo libremente.

Avatar de Usuario
gatatitania
 
Mensajes: 5236
Registrado: 16 Oct 2012, 18:27
Ubicación: Gatatitania es un gato hambriento, superviviente del planeta gatatitania...
Agradecido : 2685 veces
Agradecimiento recibido: 1599 veces

Re: Nagagutsu o haita neko: Hachijû nichikan sekai isshû (Hiroshi Shidara, 1976) BDRip 1080p VOSE + [AE]

Mensaje por gatatitania » 16 Dic 2019, 17:44

¡Gracias, Yogiyamada! :aplauso: :aplauso: :aplauso:

Avatar de Usuario
yogiyamada
 
Mensajes: 992
Registrado: 02 Oct 2012, 20:44
Agradecido : 208 veces
Agradecimiento recibido: 407 veces

Re: Nagagutsu o haita neko: Hachijû nichikan sekai isshû (Hiroshi Shidara, 1976) BDRip 1080p VOSE + [AE]

Mensaje por yogiyamada » 16 Dic 2019, 19:15

gatatitania escribió:
16 Dic 2019, 17:44
¡Gracias, Yogiyamada! :aplauso: :aplauso: :aplauso:
De nada, que disfruteis la última entrega de esta serie de pelis del Gato con Bota de Toei Animation.
Aportemos todos a que el Cine hable al alma al compartirlo libremente.

Avatar de Usuario
tonapar1
 
Mensajes: 5218
Registrado: 16 Oct 2012, 20:19
Agradecido : 1081 veces
Agradecimiento recibido: 1769 veces

Re: Nagagutsu o haita neko: Hachijû nichikan sekai isshû (Hiroshi Shidara, 1976) BDRip 1080p VOSE + [AE]

Mensaje por tonapar1 » 18 Dic 2019, 12:21

Muchas gracias por el ripeo a yogiyamada. Un saludo

Avatar de Usuario
yogiyamada
 
Mensajes: 992
Registrado: 02 Oct 2012, 20:44
Agradecido : 208 veces
Agradecimiento recibido: 407 veces

Re: Nagagutsu o haita neko: Hachijû nichikan sekai isshû (Hiroshi Shidara, 1976) BDRip 1080p VOSE + [AE]

Mensaje por yogiyamada » 18 Dic 2019, 15:57

tonapar1 escribió:
18 Dic 2019, 12:21
Muchas gracias por el ripeo a yogiyamada. Un saludo
De Nada, buen provecho en tu visionado.
Aportemos todos a que el Cine hable al alma al compartirlo libremente.

Avatar de Usuario
angelgarrido
 
Mensajes: 59
Registrado: 16 Oct 2012, 23:21
Ubicación: En la viña del señor
Agradecido : 12 veces
Agradecimiento recibido: 10 veces

Re: Nagagutsu o haita neko: Hachijû nichikan sekai isshû (Hiroshi Shidara, 1976) BDRip 1080p VOSE + [AE]

Mensaje por angelgarrido » 24 Dic 2019, 00:13

He sincronizado el audio español latino. Os dejo aquí el enlace para todo el que esté interesado:
eD2K link [El gato con botas da la vuelta al mundo_Audio sincronizado-by angelgarrido]
Imagen

Avatar de Usuario
yogiyamada
 
Mensajes: 992
Registrado: 02 Oct 2012, 20:44
Agradecido : 208 veces
Agradecimiento recibido: 407 veces

Re: Nagagutsu o haita neko: Hachijû nichikan sekai isshû (Hiroshi Shidara, 1976) BDRip 1080p VOSE + [AE]

Mensaje por yogiyamada » 24 Dic 2019, 02:30

angelgarrido escribió:
24 Dic 2019, 00:13
He sincronizado el audio español latino. Os dejo aquí el enlace para todo el que esté interesado:
eD2K link [El gato con botas da la vuelta al mundo_Audio sincronizado-by angelgarrido]
Excelente aporte, muchas gracias, te pasaste. No era fácil sincronizarlo. :aplauso: :aplauso: :aplauso: :aplauso: :aplauso: :aplauso:
Aportemos todos a que el Cine hable al alma al compartirlo libremente.

Responder

Volver a “Largos Animación”