Nagagutsu sanjûshi (Tomoharu Katsumata, 1972) BDRip 1080p VOSE + AE

Puntuación
7/10
1 voto

Three Musketeers in Boots

Moderador: yogiyamada

Reglas del Foro
Norma de los tres años.
Responder
Avatar de Usuario
yogiyamada
 
Mensajes: 992
Registrado: 02 Oct 2012, 20:44
Agradecido : 208 veces
Agradecimiento recibido: 407 veces

Japón Nagagutsu sanjûshi (Tomoharu Katsumata, 1972) BDRip 1080p VOSE + AE

Mensaje por yogiyamada » 26 Sep 2019, 05:27

Continuaban llamándole El gato con botas

Imagen
Imagen
Imagen

SINOPSIS

En ésta su segunda aventura, el Gato con Botas se encuentra en el Lejano Oeste donde se le conoce como Bill. Sigue huyendo de sus tres incansables perseguidores, viajando en diligencia hacia Go Go Town junto a su nuevo compañero Jimmy, un muchacho despreocupado y no demasiado listo, cuya valentía brilla por su ausencia. En esa misma diligencia viaja también Annie, una muchacha que regresa a Go Go Town para reencontrarse con su padre tras finalizar sus estudios. Sin embargo según llegan al pueblo Annie descubre que su padre acaba de ser asesinado, sujetando en su mano una moneda mexicana de plata, y nadie se atreve a explicarle por qué. Ha sido víctima de los secuaces de un siniestro y avaricioso personaje que tiene mucho que ocultar e intenta por todos los medios que Annie deje la ciudad. Bill insiste en que se quede y tanto él como unos agradecidos ratones indios le ofrecen su ayuda para desvelar el misterio, mientras que el desganado Jimmy no hace más que remolonear. Pero Jimmy también esconde un secreto… un as en la manga que deja a todos sorprendidos... (FILMAFFINITY)

FICHA ARTÍSTICA

Año
1972
Duración
53 min.
País
Japón
Dirección
Tomoharu Katsumata
Guion
Hirokazu Fuse (Libro: Charles Perrault)
Música
Seiichiro Uno
Fotografía
Endou Shigeyoshi
Género: Fantasía, comedia, musical.
Productora
Toei Animation

Reparto (voces)
Kobato Kurumi, UTakahashi Kazue, Komiyama Kiyoshi, Ishikawa Susumu, Masuoka Hiroshi, Wakui Setsuo, Mine Eken, Suzuki Yasushi.

COMENTARIO PERSONAL
Secuela de Nagagutsu o haita neko y adaptando libremente la obra de Perrault, esta vez con una aventura en el Medio Oeste. Otra vez una historia simple, muy bien narrada, con una animación fluida y un acting de calidad que revive la primera versión. Entretenida, dinámica, divertida logra mantener una buena entrega, esta vez mucho más corta que el primer film.
Fue realizada por Tomoharu Katsumata, director de Capitán Harlock, Mazinger Z", Los Caballeros del Zodíaco y La pequeña sirenita.
Los subt en español son del dvd que circulaba en la red adaptados a este rip de las copias de Amazon. También dejo un doblaje en español latino no sincronizado con esta copia.

DATOS TÉCNICOS

Código: Seleccionar todo

Format                      : MPEG-4
Format profile              : Base Media
Codec ID                    : isom (isom)
File size                   : 1.24 GiB
Duration                    : 52 min 43 s
Overall bit rate            : 3 380 kb/s
Encoded date                : UTC 2019-06-03 21:07:12
Tagged date                 : UTC 2019-06-03 21:07:12

Video
ID                          : 1
Format                      : AVC
Format/Info                 : Advanced Video Codec
Format profile              : High@L4.1
Format settings             : CABAC / 4 Ref Frames
Format settings, CABAC      : Yes
Format settings, ReFrames   : 4 frames
Codec ID                    : avc1
Codec ID/Info               : Advanced Video Coding
Duration                    : 52 min 43 s
Bit rate                    : 3 257 kb/s
Maximum bit rate            : 27.7 Mb/s
Width                       : 1 920 pixels
Height                      : 816 pixels
Display aspect ratio        : 2.35:1
Frame rate mode             : Constant
Frame rate                  : 23.976 (24000/1001) FPS
Color space                 : YUV
Chroma subsampling          : 4:2:0
Bit depth                   : 8 bits
Scan type                   : Progressive
Bits/(Pixel*Frame)          : 0.087
Stream size                 : 1.20 GiB (96%)
Writing library             : x264 core 155 r2901 7d0ff22
Encoding settings           : cabac=1 / ref=4 / deblock=1:0:0 / analyse=0x3:0x133 / me=hex / subme=7 / psy=1 / psy_rd=0.40:0.00 / mixed_ref=1 / me_range=16 / chroma_me=1 / trellis=2 / 8x8dct=1 / cqm=0 / deadzone=21,11 / fast_pskip=0 / chroma_qp_offset=-2 / threads=4 / lookahead_threads=1 / sliced_threads=0 / nr=0 / decimate=1 / interlaced=0 / bluray_compat=0 / constrained_intra=0 / bframes=4 / b_pyramid=2 / b_adapt=2 / b_bias=0 / direct=1 / weightb=1 / open_gop=0 / weightp=2 / keyint=240 / keyint_min=23 / scenecut=40 / intra_refresh=0 / rc_lookahead=60 / rc=abr / mbtree=1 / bitrate=3257 / ratetol=1.0 / qcomp=0.60 / qpmin=0 / qpmax=69 / qpstep=4 / ip_ratio=1.40 / aq=1:0.60
Encoded date                : UTC 2019-06-03 20:52:13
Tagged date                 : UTC 2019-06-03 21:07:17

Audio
ID                          : 2
Format                      : MPEG Audio
Format version              : Version 1
Format profile              : Layer 3
Format settings             : Joint stereo / MS Stereo
Codec ID                    : .mp3
Duration                    : 52 min 43 s
Bit rate mode               : Constant
Bit rate                    : 128 kb/s
Maximum bit rate            : 134 kb/s
Channel(s)                  : 2 channels
Sampling rate               : 44.1 kHz
Frame rate                  : 38.281 FPS (1152 SPF)
Compression mode            : Lossy
Stream size                 : 48.3 MiB (4%)
Writing library             : LAME3.99
Language                    : Japanese
Encoded date                : UTC 2019-06-03 21:07:16
Tagged date                 : UTC 2019-06-03 21:07:17

CAPTURAS

Imagen
Imagen
Imagen
Imagen
Imagen
Imagen
eD2K link Nagagutsu sanjûshi.mp4 [1.24 Gb] 
Subtítulos en español sincronizados por yogiyamada
eD2K link Nagagutsu sanjûshi.srt [42.6 Kb] 
El audio español latino sincronizado Gracias a angelgarrido
eD2K link Continuaban llamándole El Gato con Botas_Audio sincronizado-by angelgarrido.mp3 [48.28 Mb] 
angelgarrido escribió:
25 Dic 2019, 22:46
He sincronizado el audio español latino. Os dejo aquí el enlace para todo el que esté interesado:
eD2K link Continuaban llamándole El Gato con Botas_Audio sincronizado-by angelgarrido
Aportemos todos a que el Cine hable al alma al compartirlo libremente.

Avatar de Usuario
tonapar1
 
Mensajes: 5218
Registrado: 16 Oct 2012, 20:19
Agradecido : 1081 veces
Agradecimiento recibido: 1769 veces

Re: Nagagutsu sanjûshi (Tomoharu Katsumata, 1972) BDRip 1080p VOSE

Mensaje por tonapar1 » 30 Sep 2019, 23:09

Muchas gracias por el ripeo y los subs a yogiyamada. Un saludo.

Avatar de Usuario
yogiyamada
 
Mensajes: 992
Registrado: 02 Oct 2012, 20:44
Agradecido : 208 veces
Agradecimiento recibido: 407 veces

Re: Nagagutsu sanjûshi (Tomoharu Katsumata, 1972) BDRip 1080p VOSE

Mensaje por yogiyamada » 30 Sep 2019, 23:12

tonapar1 escribió:
30 Sep 2019, 23:09
Muchas gracias por el ripeo y los subs a yogiyamada. Un saludo.
Con mucho gusto, que la disfrutéis.
Aportemos todos a que el Cine hable al alma al compartirlo libremente.

Avatar de Usuario
Wardbond
 
Mensajes: 170
Registrado: 17 Oct 2012, 01:11
Agradecido : 53 veces
Agradecimiento recibido: 82 veces
Contactar:

Re: Nagagutsu sanjûshi (Tomoharu Katsumata, 1972) BDRip 1080p VOSE

Mensaje por Wardbond » 10 Oct 2019, 11:19

Muchas gracias yogiyamada! Con tu permiso la publico en FDL, que seguro que algún forajido le gustará. Gracias!!
FORAJIDOS DE LEYENDA
http://fdlwest2.forogratis.es

Avatar de Usuario
yogiyamada
 
Mensajes: 992
Registrado: 02 Oct 2012, 20:44
Agradecido : 208 veces
Agradecimiento recibido: 407 veces

Re: Nagagutsu sanjûshi (Tomoharu Katsumata, 1972) BDRip 1080p VOSE

Mensaje por yogiyamada » 12 Oct 2019, 03:23

Wardbond escribió:
10 Oct 2019, 11:19
Muchas gracias yogiyamada! Con tu permiso la publico en FDL, que seguro que algún forajido le gustará. Gracias!!
Que disfrutéis y por supuesto compartid, compartid que de eso se trata vivir. Feliz que se distribuya al fin y al cabo ya es de todos...
Aportemos todos a que el Cine hable al alma al compartirlo libremente.

Avatar de Usuario
angelgarrido
 
Mensajes: 59
Registrado: 16 Oct 2012, 23:21
Ubicación: En la viña del señor
Agradecido : 12 veces
Agradecimiento recibido: 10 veces

Re: Nagagutsu sanjûshi (Tomoharu Katsumata, 1972) BDRip 1080p VOSE + (AE)

Mensaje por angelgarrido » 25 Dic 2019, 22:46

He sincronizado el audio español latino. Os dejo aquí el enlace para todo el que esté interesado:
eD2K link Continuaban llamándole El Gato con Botas_Audio sincronizado-by angelgarrido
Imagen

Avatar de Usuario
yogiyamada
 
Mensajes: 992
Registrado: 02 Oct 2012, 20:44
Agradecido : 208 veces
Agradecimiento recibido: 407 veces

Re: Nagagutsu sanjûshi (Tomoharu Katsumata, 1972) BDRip 1080p VOSE + (AE)

Mensaje por yogiyamada » 26 Dic 2019, 18:50

angelgarrido escribió:
25 Dic 2019, 22:46
He sincronizado el audio español latino. Os dejo aquí el enlace para todo el que esté interesado:
eD2K link Continuaban llamándole El Gato con Botas_Audio sincronizado-by angelgarrido
Extraordinario, gracias por el aporte. Un regalo de Navidad animatográfico.
Aportemos todos a que el Cine hable al alma al compartirlo libremente.

Responder

Volver a “Largos Animación”