Nagagutsu o haita neko (Kimio Yabuki, 1969) BDRip 1080p VOSE + (AE)

Puntuación
7/10
1 voto

The Wonderful World of Puss `N Boots

Moderador: yogiyamada

Reglas del Foro
Norma de los tres años.
Responder
Avatar de Usuario
yogiyamada
 
Mensajes: 992
Registrado: 02 Oct 2012, 20:44
Agradecido : 208 veces
Agradecimiento recibido: 407 veces

Japón Nagagutsu o haita neko (Kimio Yabuki, 1969) BDRip 1080p VOSE + (AE)

Mensaje por yogiyamada » 19 Sep 2019, 22:49

El gato con botas

Imagen
Imagen
Imagen

SINOPSIS

El Gato con Botas es un gato mosquetero defensor de la justicia, condenado y perseguido por los suyos por ayudar a un ratón. Escapando a sus perseguidores conoce a Pedro, un joven huérfano a quien sus egoístas hermanos tratan de manera miserable. El Gato con Botas le ayuda a dejar atrás sus problemas y juntos parten en busca de aventuras. No tardan en encontrarlas. (FILMAFFINITY)

FICHA ARTÍSTICA

Año
1969
Duración
80 min.
País
Japón
Dirección
Kimio Yabuki
Guion
Hisashi Inoue, Morihisa Yamamoto (Libro: Charles Perrault)
Música
Seiichiro Uno
Fotografía
Mori Yasuji
Género: Fantasía, comedia, musical.
Productora
Toei Doga / American-International Television

Reparto (voces)
Utsumi Kenji, Fujita Toshiko, Ishikawa Susumu, Yashiro Shun, Sakakibara Rumi, Mizumori Ado, Aikawa Kin`ya, 益田喜頓, Koike Asao.

COMENTARIO PERSONAL
Adaptación de la obra de Perrault. Clásico entre clásicos del anime, este largometraje infantil es el ejemplo perfecto de lo que los japoneses querían hacer de la industria de la animación: Uno de sus mayores estandartes. Para ello Toei Animation (Doga), puso toda la carne en la parrilla y produjo una película de cosecha propia encomiable (1969) que tendría un éxito sin precedentes El Gato con Botas. Una historia simple, muy bien narrada, con una animación fluida y un acting de calidad que dotó a los personajes de un atractivo ideal. La película es muy entretenida y dinámica a pesar de lo predecible que pueda resultar, no obstante tiene un encanto que es fundamental en la animación, en definitiva una muy buena puesta en escena para la época. A pesar del referente Disney que en aquellos años era una influencia evidente y obligada, Nagagutsu o haita neko resulta con un sello propio, muy japonés, si se quiere, antecedente fundamental para lo que se venía gestándose en esos momentos. Al comparar esta película con obras como Shonen Jakku to Maho-tsukai (Jack y la bruja, 1967), Andersen Monogatari (1968), Kaitei Sanman Mile (El imperio submarino, 1970) o Sora Tobu Yuureisen (1969) que siendo adaptaciones también, este "Gato con botas" comparte ese rasgo cultural inmanente a la creación propia de la animación nipona, todas logran distanciarse del patrón Disney más arraigado.
Kimio Yabuki, también reconocido por dirigir obras como El Lago de los Cisnes, El maravilloso mundo del pequeño Andersen y Anya, logró producir una película no solo exitosa sino también emblemática, incluso fue escogido, el personaje del gato con botas, como imagen corporativa de la Toei Animation.
En este film participó también otro nombre indispensable del anime: Hayao Miyazaki, trabajó dibujando los Key Animation, es decir, las poses claves de cada movimiento de los personajes, fundamento esencial para el layout que define la puesta en escena de la animación. La película obtuvo un Premio Especial en el Festival de Cine de Moscú en 1969 como el film más entretenido. Debido al rotundo éxito de esta obra animada, se hicieron dos secuelas en 1972 y 1976. Las traeré también a Cinefórumclásico. Los subt en español son del dvd que circulaba en la red adaptados a este rip de las copias de Amazon. También dejo un doblaje en español latino que por tiempo no pude sincronizar con esta copia.

DATOS TÉCNICOS

Código: Seleccionar todo

Format                      : MPEG-4
Format profile              : Base Media
Codec ID                    : isom (isom)
File size                   : 1.91 GiB
Duration                    : 1 h 20 min
Overall bit rate            : 3 408 kb/s
Encoded date                : UTC 2019-05-23 18:22:49
Tagged date                 : UTC 2019-05-23 18:22:49

Video
ID                          : 1
Format                      : AVC
Format/Info                 : Advanced Video Codec
Format profile              : High@L4.1
Format settings             : CABAC / 4 Ref Frames
Format settings, CABAC      : Yes
Format settings, ReFrames   : 4 frames
Codec ID                    : avc1
Codec ID/Info               : Advanced Video Coding
Duration                    : 1 h 20 min
Bit rate                    : 3 257 kb/s
Maximum bit rate            : 20.4 Mb/s
Width                       : 1 920 pixels
Height                      : 816 pixels
Display aspect ratio        : 2.35:1
Frame rate mode             : Constant
Frame rate                  : 23.976 (24000/1001) FPS
Color space                 : YUV
Chroma subsampling          : 4:2:0
Bit depth                   : 8 bits
Scan type                   : Progressive
Bits/(Pixel*Frame)          : 0.087
Stream size                 : 1.83 GiB (96%)
Writing library             : x264 core 155 r2901 7d0ff22
Encoding settings           : cabac=1 / ref=4 / deblock=1:0:-1 / analyse=0x3:0x133 / me=hex / subme=7 / psy=1 / psy_rd=0.40:0.00 / mixed_ref=1 / me_range=16 / chroma_me=1 / trellis=2 / 8x8dct=1 / cqm=0 / deadzone=21,11 / fast_pskip=0 / chroma_qp_offset=-2 / threads=4 / lookahead_threads=1 / sliced_threads=0 / nr=0 / decimate=1 / interlaced=0 / bluray_compat=0 / constrained_intra=0 / bframes=5 / b_pyramid=2 / b_adapt=2 / b_bias=0 / direct=1 / weightb=1 / open_gop=0 / weightp=2 / keyint=240 / keyint_min=23 / scenecut=40 / intra_refresh=0 / rc_lookahead=60 / rc=abr / mbtree=1 / bitrate=3257 / ratetol=1.0 / qcomp=0.60 / qpmin=0 / qpmax=69 / qpstep=4 / ip_ratio=1.40 / aq=1:0.60
Encoded date                : UTC 2019-05-23 17:49:05
Tagged date                 : UTC 2019-05-23 18:22:58

Audio
ID                          : 2
Format                      : MPEG Audio
Format version              : Version 1
Format profile              : Layer 3
Format settings             : Joint stereo / MS Stereo
Codec ID                    : .mp3
Duration                    : 1 h 20 min
Bit rate mode               : Constant
Bit rate                    : 128 kb/s
Maximum bit rate            : 134 kb/s
Channel(s)                  : 2 channels
Sampling rate               : 44.1 kHz
Frame rate                  : 38.281 FPS (1152 SPF)
Compression mode            : Lossy
Stream size                 : 73.4 MiB (4%)
Writing library             : LAME3.99
Language                    : Japanese
Encoded date                : UTC 2019-05-23 18:22:56
Tagged date                 : UTC 2019-05-23 18:22:58

CAPTURAS


Imagen
Imagen
Imagen
Imagen
Imagen
Imagen
eD2K link Nagagutsu o haita neko.mp4 [1.91 Gb] 
Subtítulos en español sincronizados por yogiyamada
eD2K link Nagagutsu o haita neko.srt [55.0 Kb] 
El audio español latino no sincronizado
eD2K link El gato con botas.mp3 [70.36 Mb] 
Aportemos todos a que el Cine hable al alma al compartirlo libremente.

Avatar de Usuario
gatatitania
 
Mensajes: 5236
Registrado: 16 Oct 2012, 18:27
Ubicación: Gatatitania es un gato hambriento, superviviente del planeta gatatitania...
Agradecido : 2685 veces
Agradecimiento recibido: 1599 veces

Re: Nagagutsu o haita neko (Kimio Yabuki, 1969) BDRip 1080p VOSE

Mensaje por gatatitania » 20 Sep 2019, 18:53

¡Gracias, Yogiyamada! :aplauso: :aplauso: :aplauso:

Klinodia
 
Mensajes: 85
Registrado: 15 Jul 2015, 20:20
Agradecido : 3 veces
Agradecimiento recibido: 19 veces

España Re: Nagagutsu o haita neko (Kimio Yabuki, 1969) BDRip 1080p VOSE

Mensaje por Klinodia » 20 Sep 2019, 19:32

:aplauso: :aplauso: :aplauso: ¡¡¡¡Gracias!!!

Avatar de Usuario
yogiyamada
 
Mensajes: 992
Registrado: 02 Oct 2012, 20:44
Agradecido : 208 veces
Agradecimiento recibido: 407 veces

Re: Nagagutsu o haita neko (Kimio Yabuki, 1969) BDRip 1080p VOSE

Mensaje por yogiyamada » 21 Sep 2019, 03:08

Klinodia escribió:
20 Sep 2019, 19:32
:aplauso: :aplauso: :aplauso: ¡¡¡¡Gracias!!!
gatatitania escribió:
20 Sep 2019, 18:53
¡Gracias, Yogiyamada! :aplauso: :aplauso: :aplauso:
De nada, gracias a ustedes por agradecer. Que la disfrutéis.
Aportemos todos a que el Cine hable al alma al compartirlo libremente.

Responder

Volver a “Largos Animación”