Akira (Katsuhiro Ōtomo, 1988) BDRip 1080p Dual SE

Puntuación
7,5/10
4 votos

Moderador: yogiyamada

Reglas del Foro
Norma de los tres años.
Responder
Avatar de Usuario
eulsus
 
Mensajes: 2562
Registrado: 08 Abr 2015, 01:14
Ubicación: La Palma
Agradecido : 2792 veces
Agradecimiento recibido: 3634 veces

Japón Akira (Katsuhiro Ōtomo, 1988) BDRip 1080p Dual SE

Mensaje por eulsus » 15 Sep 2019, 22:10

baldomp en DivX Clásico (Junio-2019)




Imagen

Imagen

Aunque el anime suele estar muy documentado en foros propios, varias circunstancias concurren en "Akira": su 30 (31) cumpleaños, la curiosidad de que estamos en el año "del futuro" (del futuro de 1988) en el que se desarrolla la acción, y una cierta "resurección" del tema tras una pregunta en el foro sobre el doblaje del 92...

La película (7 millones de dólares "de la época", a golpe básicamente de esponsorización: bandai, toho para vender sus "muñequitos" y unas cuantas corporaciones más) supuso un auténtico arranque en la consideración del anime como "algo serio", e indudablemente se convirtió en influencia de cineastas que no han ocultado cuanto deben films como Looper, Matrix, Incepcion... o Stranger Things en el ámbito de la TV.

Ahora, que hay anuncio oficial de rodaje de Akira "con personas humanas" (¡ay dios mio!), producida por Leonardo DiCaprio, es momento de recordarla.

Por cierto... ¿sólo yo veo que el concepto "live action" es una mentira, en un un mundo de cromas y 'CGIses' de esos?

ImagenImagen

Ficha:
  • Título original: Akira
  • Año: 1988
  • Duración: 124 min.
  • País: Japón
  • Dirección: Katsuhiro Ōtomo
  • Guion: Katsuhiro Ōtomo, Izo Hashimoto (Manga: Katsuhiro Ōtomo)
  • Música: Shoji Yamashiro
  • Productoras:
    • Akira Committee Company Ltd.
    • Tokyo Movie Shinsha (TMS)
    • Bandai Co., Ltd.
    • Kodansha
    • Mainichi Broadcasting
    • Toho
    • Tokyo Movie Shinsha (TMS)
    • Sumitomo Corporation
  • Géneros:
    • Animación.
    • Ciencia ficción
    • Cyberpunk
    • Manga.
    • Holocausto nuclear
    • Futuro postapocalíptico
Basada en el "manga" del mismo título del director.

Imagen
Sinopsis:
Año 2019. Neo-Tokyo es una ciudad construida sobre las ruinas de la antigua capital japonesa destruida tras la Tercera Guerra Mundial. Japón es un país al borde del colapso que sufre continuas crisis políticas. En secreto, un equipo de científicos ha reanudado por orden del ejército un experimento para encontrar a individuos que puedan controlar el arma definitiva: una fuerza denominada "la energía absoluta". Pero los habitantes de Neo-Tokyo tienen otras cosas de las que preocuparse. Uno de ellos es Kaneda, un joven pandillero líder de una banda de motoristas. Durante una pelea, su mejor amigo, Tetsuo, sufre un extraño accidente y termina ingresado en unas instalaciones militares. Allí los científicos descubrirán que es el poseedor de la energía absoluta. Pero Tetsuo, que no se resigna a convertirse en un conejillo de indias, muy pronto se convertirá en la amenaza más grande que el mundo ha conocido. (FILMAFFINITY)

capturas:
Imagen
.
Imagen
.
Imagen
.
Imagen

Datos del stream:

Código: Seleccionar todo

General
Format                                   : Matroska
Format version                           : Version 4
File size                                : 7.70 GiB
Duration                                 : 2 h 5 min
Overall bit rate                         : 8 792 kb/s
Writing application                      : mkvmerge v34.0.0 ('Sight and Seen') 64-bit
Writing library                          : libebml v1.3.7 + libmatroska v1.5.0

Video
ID                                       : 1
Format                                   : AVC
Format/Info                              : Advanced Video Codec
Format profile                           : High@L4.1
Format settings                          : CABAC / 4 Ref Frames
Format settings, CABAC                   : Yes
Format settings, RefFrames               : 4 frames
Codec ID                                 : V_MPEG4/ISO/AVC
Duration                                 : 2 h 4 min
Bit rate                                 : 7 115 kb/s
Width                                    : 1 888 pixels
Height                                   : 1 020 pixels
Display aspect ratio                     : 1.85:1
Frame rate mode                          : Constant
Frame rate                               : 23.976 (24000/1001) FPS
Color space                              : YUV
Chroma subsampling                       : 4:2:0
Bit depth                                : 8 bits
Scan type                                : Progressive
Bits/(Pixel*Frame)                       : 0.154
Stream size                              : 6.19 GiB (80%)
Title                                    : == Akira (30 aniversario). baldomp ==
Writing library                          : x264 core 157 r2935 545de2f
Encoding settings                        : cabac=1 / ref=4 / deblock=1:1:1 / analyse=0x3:0x113 / me=hex / subme=7 / psy=1 / psy_rd=0.40:0.00 / mixed_ref=1 / me_range=16 / chroma_me=1 / trellis=1 / 8x8dct=1 / cqm=0 / deadzone=21,11 / fast_pskip=1 / chroma_qp_offset=-2 / threads=6 / lookahead_threads=1 / sliced_threads=0 / nr=0 / decimate=1 / interlaced=0 / bluray_compat=0 / constrained_intra=0 / bframes=5 / b_pyramid=2 / b_adapt=1 / b_bias=0 / direct=1 / weightb=1 / open_gop=0 / weightp=2 / keyint=240 / keyint_min=24 / scenecut=40 / intra_refresh=0 / rc_lookahead=40 / rc=crf / mbtree=1 / crf=19.0 / qcomp=0.60 / qpmin=0 / qpmax=69 / qpstep=4 / vbv_maxrate=62500 / vbv_bufsize=78125 / crf_max=0.0 / nal_hrd=none / filler=0 / ip_ratio=1.40 / aq=1:0.60
Default                                  : Yes
Forced                                   : Yes
Color range                              : Limited
Color primaries                          : BT.709
Transfer characteristics                 : BT.709
Matrix coefficients                      : BT.709

Audio #1
ID                                       : 2
Format                                   : AAC LC
Format/Info                              : Advanced Audio Codec Low Complexity
Codec ID                                 : A_AAC-2
Duration                                 : 2 h 4 min
Bit rate                                 : 165 kb/s
Channel(s)                               : 2 channels
Channel layout                           : L R
Sampling rate                            : 48.0 kHz
Frame rate                               : 46.875 FPS (1024 SPF)
Compression mode                         : Lossy
Delay relative to video                  : 1 s 0 ms
Stream size                              : 147 MiB (2%)
Title                                    : castellano (2004)
Language                                 : Spanish
Default                                  : Yes
Forced                                   : Yes

Audio #2
ID                                       : 3
Format                                   : AAC LC
Format/Info                              : Advanced Audio Codec Low Complexity
Codec ID                                 : A_AAC-2
Duration                                 : 2 h 4 min
Bit rate                                 : 128 kb/s
Channel(s)                               : 2 channels
Channel layout                           : L R
Sampling rate                            : 44.1 kHz
Frame rate                               : 43.066 FPS (1024 SPF)
Compression mode                         : Lossy
Delay relative to video                  : 1 s 0 ms
Stream size                              : 114 MiB (1%)
Title                                    : castellano (2002)
Language                                 : Spanish
Default                                  : No
Forced                                   : No

Audio #3
ID                                       : 4
Format                                   : AAC LC
Format/Info                              : Advanced Audio Codec Low Complexity
Codec ID                                 : A_AAC-2
Duration                                 : 2 h 4 min
Bit rate                                 : 165 kb/s
Channel(s)                               : 2 channels
Channel layout                           : L R
Sampling rate                            : 48.0 kHz
Frame rate                               : 46.875 FPS (1024 SPF)
Compression mode                         : Lossy
Delay relative to video                  : 1 s 0 ms
Stream size                              : 147 MiB (2%)
Title                                    : castellano (1992)
Language                                 : Spanish
Default                                  : No
Forced                                   : No

Audio #4
ID                                       : 5
Format                                   : AAC LC
Format/Info                              : Advanced Audio Codec Low Complexity
Codec ID                                 : A_AAC-2
Duration                                 : 2 h 4 min
Bit rate                                 : 165 kb/s
Channel(s)                               : 2 channels
Channel layout                           : L R
Sampling rate                            : 48.0 kHz
Frame rate                               : 46.875 FPS (1024 SPF)
Compression mode                         : Lossy
Delay relative to video                  : 1 s 0 ms
Stream size                              : 147 MiB (2%)
Title                                    : catalán (1996)
Language                                 : Spanish
Default                                  : No
Forced                                   : No

Audio #5
ID                                       : 6
Format                                   : AAC LC
Format/Info                              : Advanced Audio Codec Low Complexity
Codec ID                                 : A_AAC-2
Duration                                 : 2 h 4 min
Bit rate                                 : 165 kb/s
Channel(s)                               : 2 channels
Channel layout                           : L R
Sampling rate                            : 48.0 kHz
Frame rate                               : 46.875 FPS (1024 SPF)
Compression mode                         : Lossy
Delay relative to video                  : 1 s 0 ms
Stream size                              : 147 MiB (2%)
Title                                    : valenciano (2002)
Language                                 : Spanish
Default                                  : No
Forced                                   : No

Audio #6
ID                                       : 7
Format                                   : AAC LC
Format/Info                              : Advanced Audio Codec Low Complexity
Codec ID                                 : A_AAC-2
Duration                                 : 2 h 5 min
Bit rate                                 : 128 kb/s
Channel(s)                               : 2 channels
Channel layout                           : L R
Sampling rate                            : 48.0 kHz
Frame rate                               : 46.875 FPS (1024 SPF)
Compression mode                         : Lossy
Delay relative to video                  : 1 s 0 ms
Stream size                              : 115 MiB (1%)
Title                                    : español latino (1988)
Language                                 : Spanish
Default                                  : No
Forced                                   : No

Audio #7
ID                                       : 8
Format                                   : AC-3
Format/Info                              : Audio Coding 3
Commercial name                          : Dolby Digital
Codec ID                                 : A_AC3
Duration                                 : 2 h 4 min
Bit rate mode                            : Constant
Bit rate                                 : 320 kb/s
Channel(s)                               : 6 channels
Channel layout                           : L R C LFE Ls Rs
Sampling rate                            : 48.0 kHz
Frame rate                               : 31.250 FPS (1536 SPF)
Bit depth                                : 16 bits
Compression mode                         : Lossy
Stream size                              : 285 MiB (4%)
Title                                    : japones (1988)
Language                                 : Spanish
Service kind                             : Complete Main
Default                                  : No
Forced                                   : No

Audio #8
ID                                       : 9
Format                                   : AAC LC
Format/Info                              : Advanced Audio Codec Low Complexity
Codec ID                                 : A_AAC-2
Duration                                 : 2 h 4 min
Bit rate                                 : 243 kb/s
Channel(s)                               : 6 channels
Channel layout                           : C L R Ls Rs LFE
Sampling rate                            : 48.0 kHz
Frame rate                               : 46.875 FPS (1024 SPF)
Compression mode                         : Lossy
Delay relative to video                  : 1 s 0 ms
Stream size                              : 216 MiB (3%)
Title                                    : inglés (2001)
Language                                 : Spanish
Default                                  : No
Forced                                   : No

Audio #9
ID                                       : 10
Format                                   : AAC LC
Format/Info                              : Advanced Audio Codec Low Complexity
Codec ID                                 : A_AAC-2
Duration                                 : 2 h 4 min
Bit rate                                 : 256 kb/s
Channel(s)                               : 2 channels
Channel layout                           : L R
Sampling rate                            : 48.0 kHz
Frame rate                               : 46.875 FPS (1024 SPF)
Compression mode                         : Lossy
Delay relative to video                  : 1 s 0 ms
Stream size                              : 228 MiB (3%)
Title                                    : inglés (1988)
Language                                 : Spanish
Default                                  : No
Forced                                   : No

Text
ID                                       : 11
Format                                   : UTF-8
Codec ID                                 : S_TEXT/UTF8
Codec ID/Info                            : UTF-8 Plain Text
Duration                                 : 2 h 0 min
Bit rate                                 : 41 b/s
Count of elements                        : 1061
Stream size                              : 36.9 KiB (0%)
Title                                    : castellano
Language                                 : Spanish
Default                                  : No
Forced                                   : No

Menu #1
00:00:00.000                             : en:Chapter 01
00:03:03.308                             : en:Chapter 02
00:06:57.667                             : en:Chapter 03
00:12:10.730                             : en:Chapter 04
00:16:52.886                             : en:Chapter 05
00:23:44.339                             : en:Chapter 06
00:32:09.510                             : en:Chapter 07
00:38:13.249                             : en:Chapter 08
00:45:04.702                             : en:Chapter 09
00:53:15.483                             : en:Chapter 10
00:57:15.849                             : en:Chapter 11
01:02:31.205                             : en:Chapter 12
01:08:35.402                             : en:Chapter 13
01:14:29.465                             : en:Chapter 14
01:21:30.468                             : en:Chapter 15
01:25:56.484                             : en:Chapter 16
01:36:04.508                             : en:Chapter 17
01:41:53.899                             : en:Chapter 18
01:49:20.679                             : en:Chapter 19
01:56:05.959                             : en:Chapter 20
01:58:24.013                             : en:Chapter 21

Imagen

Fuentes:
  • Vídeo: Aunque haya efectivamente bastante presencia de "Akira" en La Red, hay mucho con bitrate justito, la mayoría no "cropeada" y bastante versión (esto es normal en foros de anime) en 10bit o x265. Sin discutir en si es "mejor o peor", pero con el afán de "retrocompatibilidad" (y ..¡ qué narices! ... porque mola pensar "lo he hecho yo") pues ... me he convertido en la persona número un millón que recodifica Akira, con mimo (eso si...), desde un BDremux de 40Gb (CRF19, Hight, L4.1, Slowest)
  • Audios: Una extensa lista, tomada "de aquí y allá". Agradezco especialmente el enorme valor de la versión de "HoT.FuN" plagada de audios (aunque con 10bit en vídeo)
    • japonés (desde DTS del BDremux)
    • español (castellano), 1992
    • español (castellano), 2002
    • español (castellano), 2004 (audio por defecto, por calidad del audio y la traducción)
    • español (latino), 1998
    • catalán, 1996
    • valenciano, 2002
    • inglés, 1998
    • inglés, 2001
Enlace:

eD2K link akira (K.Otomo-1988) BDrip 1080p Crf19 (JAP.SPA.LAT.CAT.VAL.ENG) Subs SPA (by baldomp).mkv [7.70 Gb] 
Imagen
Antonio García-Trevijano Forte (1927-2018)
"Para que yo sea libre, todos tienen que ser libres"

Abstención activa hasta que haya Libertad Colectiva

Avatar de Usuario
mifune
 
Mensajes: 7003
Registrado: 02 Oct 2012, 20:48
Ubicación: Welcome to the Jungle
Agradecido : 9636 veces
Agradecimiento recibido: 9774 veces

Re: Akira (Katsuhiro Ōtomo, 1988) BDRip 1080p Dual SE

Mensaje por mifune » 16 Sep 2019, 02:25

Aún recuerdo el programa de metropolis dónde la vi anunciada y desde ese día no paré hasta verla finalmente. Luego no me enteré de nada de la peli, pero me sigue alucinando la moto...

Gracias por traerla.
Estimados compañeros: recordad enlazar al ripeo previo en vuestros nuevos aportes, para facilitar su localización y unión posterior, gracias.

Avatar de Usuario
yogiyamada
 
Mensajes: 992
Registrado: 02 Oct 2012, 20:44
Agradecido : 208 veces
Agradecimiento recibido: 407 veces

Re: Akira (Katsuhiro Ōtomo, 1988) BDRip 1080p Dual SE

Mensaje por yogiyamada » 16 Sep 2019, 02:59

Estupendo aporte. Indispensable. A estas alturas un clásico del anime.
Aportemos todos a que el Cine hable al alma al compartirlo libremente.

Avatar de Usuario
yojimbo
 
Mensajes: 10790
Registrado: 18 Oct 2012, 14:25
Agradecido : 10065 veces
Agradecimiento recibido: 2882 veces

Re: Akira (Katsuhiro Ōtomo, 1988) BDRip 1080p Dual SE

Mensaje por yojimbo » 16 Sep 2019, 14:38

Muchas gracias, eulsus y baldomp.
mifune escribió:
16 Sep 2019, 02:25
Aún recuerdo el programa de metropolis dónde la vi anunciada y desde ese día no paré hasta verla finalmente. Luego no me enteré de nada de la peli, pero me sigue alucinando la moto...

Gracias por traerla.

Recuerdo que, cuando la vi me quedé flipando también con la moto y, efectivamente, no me enteré de nada, a pesar de lo cual me produjo una enorme fascinación conceptual. Respecto de la moto, no dejaba de pensar en "Tron".

Saludos.

ciberyago
 
Mensajes: 2549
Registrado: 20 Oct 2012, 07:26
Agradecido : 1 vez
Agradecimiento recibido: 434 veces

Re: Akira (Katsuhiro Ōtomo, 1988) BDRip 1080p Dual SE

Mensaje por ciberyago » 16 Sep 2019, 16:46

Muchas gracias!

Avatar de Usuario
tonapar1
 
Mensajes: 5218
Registrado: 16 Oct 2012, 20:19
Agradecido : 1081 veces
Agradecimiento recibido: 1769 veces

Re: Akira (Katsuhiro Ōtomo, 1988) BDRip 1080p Dual SE

Mensaje por tonapar1 » 16 Sep 2019, 22:35

Muchas gracias por el ripeo y los subs a eulsus y abaldomp. Pòr cierto ....valenciano....? no lo digo con menosprecio vaya por delante pero desde luego me ha sorprendido por no ser habitual xd

Responder

Volver a “Largos Animación”