Chibikko Remi to meiken Capi (Yûgo Serikawa, 1970) DVDRip Dual SE

Puntuación
5/10
1 voto

Remi, sin familia

Moderador: yogiyamada

Reglas del Foro
Norma de los tres años.
Responder
Avatar de Usuario
yogiyamada
 
Mensajes: 994
Registrado: 02 Oct 2012, 20:44
Agradecido : 211 veces
Agradecimiento recibido: 407 veces

Japón Chibikko Remi to meiken Capi (Yûgo Serikawa, 1970) DVDRip Dual SE

Mensaje por yogiyamada » 19 Ago 2019, 06:21

Remi, sin familia

Imagen
Imagen
Imagen

SINOPSIS
Al volver Jerome a casa, herido de una pierna en París, decide vender a su hijo adoptivo, Remi, al cómico ambulante Vitalis. El niño huérfano, acompañado por su inseparable perro Capi y su loro Pepe, , no tarda en hacerse amigo de la troupe de artistas que viajan con Vitalis y de otros animales de la compañía: el mono Joli-Coeur y los perros Zerbino y Dolce. Por desgracia Vitalis es encarcelado por actuar en un pueblo sin autorización. Remi, solo con sus animales, es salvado por la señora Milligan, sin embargo sus fatídico destino aún no ha terminado.

FICHA ARTÍSTICA

Año
1970
Duración
77 min.
País
Japón
Dirección
Yûgo Serikawa
Guion
Segawa Masaharu (Adaptación de la novela de Hector-Henri Malot)
Música
Chuji Kinoshita
Fotografía
Hayashi Akio, Ikeda Shigeyoshi
Productora
Toei Animation

Reparto (voces)
Tomita Kousei, Utsumi Kenji, Kuri Chiharu, Tsuboi Akiko, Chijimatsu Sachiko.

COMENTARIO PERSONAL
Primera aproximación a la obra de Malot, Toe Animation adapta la novela francesa en 1970 por primera vez (lo haría más tarde a través de una serie en 1977). Se trata de una adaptación fiel, aunque comprimida, que cuenta la historia de Remi, que es vendido al músico ambulante Vitalis. Tiene números musicales típicos de esta era de películas de Toei, algunos torpes bofetadas, un montón de escenas hechas a medida para emocionar de manera directa y sin tapujos al espectador de la época. Con una animación muy suave, colores fuertes esta película es muy predecible y no está a la altura de otras de la casa de estudio nipona. No obstante, a ratos es divertida, su síntesis resulta extraña y a pesar de que la sombra de Disney se nota, hay elementos que ya atisban un sello propio que decantaría años después con obras más maduras y de temática autóctona. En general una película agradable que es interesante ver por los aspectos técnicos; pero la historia deja mucho que desear, ya que explota de modo excesivo el plano sensible y melodramático de la trama. De todos modos es un antecedente interesante de la archiconocida serie de Takahata Marco y en general el melodrama muy estereotipado que se desarrollará en el anime. En ese sentido la serie rescata mejor la historia y el texto de la novela de Malot, eso sí son más de cincuenta episodios. También se hizo una película resumen en 1980, ocupando material de la serie. Este ripeo es del Dvd que circulaba en la red y que ya no está más. Lleva audio japonés y español latino. Los subtítulos están adaptados a este ripeo y mejorados por un servidor.

DATOS TÉCNICOS

Código: Seleccionar todo

Format                      : MPEG-4
Format profile              : Base Media
Codec ID                    : isom (isom)
File size                   : 1.06 GiB
Duration                    : 1 h 17 min
Overall bit rate            : 1 953 kb/s
Encoded date                : UTC 2019-08-19 02:47:38
Tagged date                 : UTC 2019-08-19 02:47:38

Video
ID                          : 1
Format                      : AVC
Format/Info                 : Advanced Video Codec
Format profile              : High@L4.1
Format settings             : CABAC / 4 Ref Frames
Format settings, CABAC      : Yes
Format settings, ReFrames   : 4 frames
Codec ID                    : avc1
Codec ID/Info               : Advanced Video Coding
Duration                    : 1 h 17 min
Bit rate                    : 1 500 kb/s
Maximum bit rate            : 5 638 kb/s
Width                       : 854 pixels
Height                      : 408 pixels
Display aspect ratio        : 2.093
Frame rate mode             : Constant
Frame rate                  : 25.000 FPS
Color space                 : YUV
Chroma subsampling          : 4:2:0
Bit depth                   : 8 bits
Scan type                   : Progressive
Bits/(Pixel*Frame)          : 0.172
Stream size                 : 834 MiB (77%)
Writing library             : x264 core 155 r2901 7d0ff22
Encoding settings           : cabac=1 / ref=4 / deblock=1:0:0 / analyse=0x3:0x133 / me=hex / subme=7 / psy=1 / psy_rd=0.40:0.00 / mixed_ref=1 / me_range=16 / chroma_me=1 / trellis=2 / 8x8dct=1 / cqm=0 / deadzone=21,11 / fast_pskip=0 / chroma_qp_offset=-2 / threads=4 / lookahead_threads=1 / sliced_threads=0 / nr=0 / decimate=1 / interlaced=0 / bluray_compat=0 / constrained_intra=0 / bframes=5 / b_pyramid=2 / b_adapt=2 / b_bias=0 / direct=1 / weightb=1 / open_gop=0 / weightp=2 / keyint=250 / keyint_min=25 / scenecut=40 / intra_refresh=0 / rc_lookahead=60 / rc=abr / mbtree=1 / bitrate=1500 / ratetol=1.0 / qcomp=0.60 / qpmin=0 / qpmax=69 / qpstep=4 / ip_ratio=1.40 / aq=1:0.60
Encoded date                : UTC 2019-08-19 02:17:31
Tagged date                 : UTC 2019-08-19 02:47:49

Audio #1
ID                          : 2
Format                      : AC-3
Format/Info                 : Audio Coding 3
Codec ID                    : ac-3
Duration                    : 1 h 17 min
Bit rate mode               : Constant
Bit rate                    : 320 kb/s
Maximum bit rate            : 338 kb/s
Channel(s)                  : 2 channels
Channel positions           : Front: L R
Sampling rate               : 48.0 kHz
Frame rate                  : 31.250 FPS (1536 SPF)
Bit depth                   : 16 bits
Compression mode            : Lossy
Stream size                 : 178 MiB (16%)
Language                    : Japanese
Service kind                : Complete Main
Encoded date                : UTC 2019-08-19 02:47:42
Tagged date                 : UTC 2019-08-19 02:47:49

Audio #2
ID                          : 3
Format                      : MPEG Audio
Format version              : Version 1
Format profile              : Layer 3
Format settings             : Joint stereo / MS Stereo
Codec ID                    : .mp3
Duration                    : 1 h 17 min
Bit rate mode               : Constant
Bit rate                    : 128 kb/s
Maximum bit rate            : 134 kb/s
Channel(s)                  : 2 channels
Sampling rate               : 44.1 kHz
Frame rate                  : 38.281 FPS (1152 SPF)
Compression mode            : Lossy
Stream size                 : 71.1 MiB (7%)
Writing library             : LAME3.99
Language                    : Sinhala
Encoded date                : UTC 2019-08-19 02:47:47
Tagged date                 : UTC 2019-08-19 02:47:49

CAPTURAS


Imagen
Imagen
Imagen
Imagen
Imagen
Imagen
eD2K link Chibikko Remi to Meiken Kapi.mp4 [1.06 Gb] 
Subtítulos en español de yogiyamada
eD2K link Chibikko Remi to Meiken Kapi.srt [57.8 Kb] 
Aportemos todos a que el Cine hable al alma al compartirlo libremente.

Avatar de Usuario
yojimbo
 
Mensajes: 10817
Registrado: 18 Oct 2012, 14:25
Agradecido : 10100 veces
Agradecimiento recibido: 2892 veces

Re: Chibikko Remi to meiken Capi (Yûgo Serikawa, 1970) DVDRip Dual SE

Mensaje por yojimbo » 19 Ago 2019, 14:37

Muchas gracias, yogiyamada.

Avatar de Usuario
yogiyamada
 
Mensajes: 994
Registrado: 02 Oct 2012, 20:44
Agradecido : 211 veces
Agradecimiento recibido: 407 veces

Re: Chibikko Remi to meiken Capi (Yûgo Serikawa, 1970) DVDRip Dual SE

Mensaje por yogiyamada » 19 Ago 2019, 16:49

yojimbo escribió:
19 Ago 2019, 14:37
Muchas gracias, yogiyamada.
De nada Yojimbo, que la aprecies en su justa medida.
Aportemos todos a que el Cine hable al alma al compartirlo libremente.

Avatar de Usuario
Forrest Gump
 
Mensajes: 1501
Registrado: 22 Oct 2012, 09:29
Ubicación: Al este del paraíso.
Agradecido : 3254 veces
Agradecimiento recibido: 977 veces

Re: Chibikko Remi to meiken Capi (Yûgo Serikawa, 1970) DVDRip Dual SE

Mensaje por Forrest Gump » 21 Sep 2020, 06:19

Muchas gracias, yogi. Creo que llego un poco tarde; pero seguro que alguien me dará una mano.
La serie animada de Remi marcó mi niñez. :drinks:
Johnny: How many men have you forgotten?
Vienna: As many women as you've remembered.

Responder

Volver a “Largos Animación”