Anastasia (Don Bluth, Gary Goldman, 1997) BDRip 1080p Dual SE-SI

Puntuación
5/10
1 voto

Moderador: yogiyamada

Reglas del Foro
Norma de los tres años.
Responder
Avatar de Usuario
eulsus
 
Mensajes: 1627
Registrado: 08 Abr 2015, 01:14
Ubicación: La Palma
Agradecido : 1922 veces
Agradecimiento recibido: 2179 veces

Estados Unidos Anastasia (Don Bluth, Gary Goldman, 1997) BDRip 1080p Dual SE-SI

Mensaje por eulsus » 16 Jul 2019, 00:03

baldomp en DivX Clásico (5 de Enero de 2019)




Imagen
Anastasia (1997)



Bueno... sí... es un "dramón de princesas", pero es navidad qué co....

La verdad es que el escaneo a BR es sencillamente fantástico. Podeis verlo en las capturas de pantalla

Datos Film:
  • TÍTULO ORIGINAL Anastasia
  • AÑO 1997
  • DURACIÓN 94 min.
  • PAÍS Estados Unidos
  • DIRECTOR Don Bluth, Gary Goldman
  • GUIÓN Susan Gauthier, Bruce Graham, Bob Tzudiker, Noni White
  • MÚSICA David Newman, Stephen Flaherty, Lynn Ahrens
  • FOTOGRAFÍA Animation
  • REPARTO Animation
  • PRODUCTORA 20th Century Fox
  • PREMIOS 1997: 2 nominaciones al Oscar: Mejor bso (Comedia o Musical), canción original
  • 1997: 2 nominaciones al Globo de Oro: Mejores canciones originales
Datos técnicos:
  • Grabación audio: DTS
  • Color : Technicolor, Hollywood (CA), USA (color by)
  • Aspect Ratio: 2.39:1
  • Formato de negativo: 35 mm (Cinemascope)
Sinopsis:

Anastasia, la hija más joven de la familia real de Rusia, es la única superviviente de la matanza que hubo en 1918, en Ekaterimburgo. Años después reaparece amnésica y conoce a un joven llamado Dimitri. Juntos tendrán que luchar contra Rasputín y su sicario…

Comentario personal:

Don Bluth.... Este ex-animador Disney me había ganado personalmente como dibujante por el trazo en sus personajes (los conejitos de "Robin Hood"...), pero posteriormente me ganó con Nimh ("el mundo secreto de la señora Brisby") y, como milenial que soy... con sus personajes del videojuego "Dragon's Lair" (el primero en videodisc)...

La historia de Anastasia... un dramón (y ahora ya sabemos que Anastasia no se salvó...), almibarado, romántico, plagado de canciones intermadias... ya sabeis. Yo soy más de "Porco Rosso"... pero esto tambien es un ... "estilo"

Datos Stream:

Código: Seleccionar todo

Format                      : Matroska
Format version              : Version 4 / Version 2
File size                   : 3.80 GiB
Duration                    : 1h 34mn
Overall bit rate            : 5 774 Kbps
Encoded date                : UTC 2019-01-05 09:54:32
Writing application         : mkvmerge v12.0.0 ('Trust / Lust') 64bit
Writing library             : libebml v1.3.4 + libmatroska v1.4.5

Video
ID                          : 1
Format                      : AVC
Format/Info                 : Advanced Video Codec
Format profile              : High@L4.1
Format settings, CABAC      : Yes
Format settings, ReFrames   : 5 frames
Codec ID                    : V_MPEG4/ISO/AVC
Duration                    : 1h 34mn
Bit rate                    : 5 131 Kbps
Width                       : 1 920 pixels
Height                      : 816 pixels
Display aspect ratio        : 2.35:1
Frame rate mode             : Constant
Frame rate                  : 23.976 (24000/1001) fps
Color space                 : YUV
Chroma subsampling          : 4:2:0
Bit depth                   : 8 bits
Scan type                   : Progressive
Bits/(Pixel*Frame)          : 0.137
Stream size                 : 3.38 GiB (89%)
Writing library             : x264 core 114 r1913 5fd3dce
Encoding settings           : cabac=1 / ref=5 / deblock=1:0:0 / analyse=0x3:0x133 / me=umh / subme=8 / psy=1 / psy_rd=1.00:0.00 / mixed_ref=1 / me_range=16 / chroma_me=1 / trellis=1 / 8x8dct=1 / cqm=0 / deadzone=21,11 / fast_pskip=1 / chroma_qp_offset=-2 / threads=24 / sliced_threads=0 / nr=0 / decimate=1 / interlaced=0 / constrained_intra=0 / bframes=3 / b_pyramid=2 / b_adapt=1 / b_bias=0 / direct=1 / weightb=1 / open_gop=0 / weightp=2 / keyint=250 / keyint_min=23 / scenecut=40 / intra_refresh=0 / rc_lookahead=40 / rc=2pass / mbtree=1 / bitrate=5131 / ratetol=1.0 / qcomp=0.60 / qpmin=0 / qpmax=69 / qpstep=4 / cplxblur=20.0 / qblur=0.5 / ip_ratio=1.40 / aq=1:1.00
Default                     : Yes
Forced                      : Yes

Audio #1
ID                          : 2
Format                      : AC-3
Format/Info                 : Audio Coding 3
Mode extension              : CM (complete main)
Format settings, Endianness : Big
Codec ID                    : A_AC3
Duration                    : 1h 34mn
Bit rate mode               : Constant
Bit rate                    : 320 Kbps
Channel(s)                  : 6 channels
Channel positions           : Front: L C R, Side: L R, LFE
Sampling rate               : 48.0 KHz
Frame rate                  : 31.250 fps (1536 spf)
Compression mode            : Lossy
Stream size                 : 215 MiB (6%)
Title                       : Castellano
Language                    : Spanish
Default                     : Yes
Forced                      : Yes

Audio #2
ID                          : 3
Format                      : AC-3
Format/Info                 : Audio Coding 3
Mode extension              : CM (complete main)
Format settings, Endianness : Big
Codec ID                    : A_AC3
Duration                    : 1h 34mn
Bit rate mode               : Constant
Bit rate                    : 320 Kbps
Channel(s)                  : 6 channels
Channel positions           : Front: L C R, Side: L R, LFE
Sampling rate               : 48.0 KHz
Frame rate                  : 31.250 fps (1536 spf)
Compression mode            : Lossy
Stream size                 : 216 MiB (6%)
Title                       : English
Language                    : English
Default                     : No
Forced                      : No

Text #1
ID                          : 4
Format                      : UTF-8
Codec ID                    : S_TEXT/UTF8
Codec ID/Info               : UTF-8 Plain Text
Duration                    : 1h 26mn
Bit rate                    : 53 bps
Count of elements           : 1038
Stream size                 : 33.8 KiB (0%)
Title                       : Castellano
Language                    : Spanish
Default                     : No
Forced                      : No

Text #2
ID                          : 5
Format                      : UTF-8
Codec ID                    : S_TEXT/UTF8
Codec ID/Info               : UTF-8 Plain Text
Duration                    : 1h 33mn
Bit rate                    : 68 bps
Count of elements           : 1453
Stream size                 : 47.2 KiB (0%)
Title                       : English
Language                    : English
Default                     : No
Forced                      : No


Capturas:

Imagen
Imagen
Imagen
Imagen

Fuentes:

Varias: El stream de vídeo es un BDREMUX "soviético" via TParser..El audio inglés es un AC3 6 canales obtenido del DTS original. Si deseais el DTS separado os lo comparto pero balancenando precio/resultado, el DTS a veces casca en algunos decoders de TV (y egoistamente... mi NAS trascodifica streaming para entregárselo a mis dispositivos, mejor desde un AC3). El audio castellano pertenece a la versión que yo ya disponía procedente de DVDRIP (desconozco la autoría). Es un AC3 6 canales que solo ha habido que reajustar al nuevo framerate. Los subtítulos proceden de OpenSubtitles. Castellanizados ("conversación" por "plática"...etc). Si he cometido algún descuido, disculpadme.

El doblaje:
Doblaje "estilo Disney", con canciones traducidas. Como curiosidad... viendo ahora la ficha en "eldoblaje", el director resultó ser Miguel Angel Jenner, padre de Michelle y voz habitual de Samuel L. Jackson (y Jean Reno).


Vale... muy bonito, pero...¿donde está la película?

eD2K link 1997_Anastasia (Gary Goldman-Don Bluth) HD 1080p Dual (Eng&Spa) Subs by baldomp.mkv [3.80 Gb] 

Por favor... ayudad a compartir ...
Imagen
Antonio García-Trevijano Forte (1927-2018)
"Para que yo sea libre, todos tienen que ser libres"

Abstención activa hasta que haya Libertad Colectiva

Avatar de Usuario
yogiyamada
 
Mensajes: 750
Registrado: 02 Oct 2012, 20:44
Agradecido : 32 veces
Agradecimiento recibido: 242 veces

Re: Anastasia (Don Bluth, Gary Goldman, 1997) BDRip 1080p Dual SE-SI

Mensaje por yogiyamada » 16 Jul 2019, 00:48

Gracias por traer a Bluth a CineForumClásico. Gran animador y mejor dibujante de layout en lo que concierne al acting de los personajes.... Anastasia tal vez no es su mejor obra , pero la animación como siempre es exquisita...
Aportemos todos a que el Cine hable al alma al compartirlo libremente.

Avatar de Usuario
tonapar1
 
Mensajes: 3949
Registrado: 16 Oct 2012, 20:19
Agradecido : 995 veces
Agradecimiento recibido: 1080 veces

Re: Anastasia (Don Bluth, Gary Goldman, 1997) BDRip 1080p Dual SE-SI

Mensaje por tonapar1 » 16 Jul 2019, 19:45

Muchas gracias por el ripeo a eulsus . Un saludo.

Avatar de Usuario
redes120
 
Mensajes: 12
Registrado: 23 Feb 2013, 01:19
Ubicación: España
Agradecimiento recibido: 1 vez

Re: Anastasia (Don Bluth, Gary Goldman, 1997) BDRip 1080p Dual SE-SI

Mensaje por redes120 » 17 Jul 2019, 14:07

Muchas gracias eulsus
Compartir,aprender y pasar algunos ratos.

Avatar de Usuario
yojimbo
 
Mensajes: 8679
Registrado: 18 Oct 2012, 14:25
Agradecido : 8522 veces
Agradecimiento recibido: 2044 veces

Re: Anastasia (Don Bluth, Gary Goldman, 1997) BDRip 1080p Dual SE-SI

Mensaje por yojimbo » 17 Jul 2019, 16:13

Muchas gracias, eulsus y baldomp.

Responder

Volver a “Largos Animación”