Página 1 de 1

The Three Caballeros (VV. DD., 1944) WEB-DLRip 720p Multiaudio Multisubs

Publicado: 31 May 2019, 08:29
por DCINE
Los tres caballeros
(The Three Caballeros)

1944

Imagen


AKA: I tre caballeros/Les trois caballeros/Drei Cabballeros/Você Já Foi à Bahia

DIRECTOR: Norman Ferguson, Clyde Geronimi, Jack Kinney, Bill Roberts, Harold Young
PRODUCTORA: Walt Disney Productions
GUIÓN: James Bodrero, Homer Brightman, Del Connell, William Cottrell, Bill Peet, Elmer Plummer, Ted Sears, Ernest Terrazzas, Roy Williams, Ralph Wright
MÚSICA: Edward H. Plumb, Paul J. Smith, Charles Wolcott
FOTOGRAFÍA: Ray Rennahan

ImagenImagenImagen


ImagenImagenImagen

Imagen

EEUU
Imagen
Imagen

Italia
ImagenImagenImagen

Imagen


Francia
ImagenImagen


Alemania

Imagen



ARGUMENTO El gallo Panchito, el loro José Carioca y el pato Donald protagonizan esta comedia musical en la que se combinan personajes reales con dibujos animados. Mucho ritmo, chicas guapas y diversión son los principales ingredientes. (FILMAFFINITY) IMDB: https://www.imdb.com/title/tt0038166/



ImagenImagenImagen
ImagenImagenImagen
ImagenImagenImagen
ImagenImagenImagen

Imagen


Imagen

Imagen

Doblaje Neutro Angelino para cines de 1944: https://doblaje.fandom.com/es/wiki/Los_tres_caballeros
Doppiaggio originale 1949: https://www.antoniogenna.net/doppiaggio ... lleros.htm
Doublaje original 1948: http://doublagefrancophone.lebonforum.c ... caballeros
Synchronisation von 1954: https://synchrondatenbank.de/movie.php
Dublagem original 1945: https://dublagempedia.fandom.com/pt-br/ ... 0_Bahia%3F

Reparto: Aurora Miranda, Carmen Molina, Dora Luz, Sterling Holloway, Clarence Nash (Donald Duck (voice)), Joaquin Garay (Panchito (voice)), José Oliveira (José Carioca (voice)) Frank Graham (Narrator (voice))


Datos técnicos

Video: 1080p sin cropear obtenido de 7tor. Codificado a 720p por este servidor como prueba de ripeos en HD

Audios:

V.O.: Ya codificado en AC-3

Doblajes:

Doblaje Neutro Cines 1944: De un DVDFull procedente de exvagos subido por tiger74, gracias

Doppiaggio originale 1949: De un DVDRip sin firmar, gracias.

Doublaje original 1948: Del mismo DVDRip de donde extraje el doblaje italiano.

Synchronisation von 1954: De un DVDFull procedente de exvagos subido por tiger74, gracias

Dublagem Original 1945: De un DVDFull procedente de exvagos subido por tiger74, gracias

Subtítulos: De opensubtitles

En Español, Inglés, Italiano, Francés, Alemán, Portugués, Turco, Holandés, Griego, Croata, Húngaro, Indonesio, Noruego, Rumano, Servio


Los forzados en español para las canciones los he creado a través de los del DVDFull de exvagos

Código: Seleccionar todo

General:

Complete name                    : 1944 Los tres caballeros (The Three Caballeros) (VV. DD., 1944) WEB-DLRip 720p (Spa (Doblaje Neutro Cines 1944)-Eng-Ita-Fre-Ger-Por) Subs by DCINE.mkv
Format                           : Matroska
Format version                   : Version 4 / Version 2
File size                        : 4.62 GiB
Duration                         : 1h 11mn
Overall bit rate                 : 9 241 Kbps
Movie name                       : 1944 Los tres caballeros/The Three Caballeros/I tre caballeros/Les trois caballeros/Drei Cabballeros/Você Já Foi à Bahia (Norman Ferguson, Clyde Geronimi, Jack Kinney, Bill Roberts, Harold Young, 1944) WEB-DLRip 720p Multiaudio (Spa (Doblaje neutro angelino para cines de 1944)-Eng-Ita (Doppiaggio originale 1949)-Fre (Doublaje original 1948)-Ger (Synchronisation von 1954)-Por (Dublagem original 1945)) SE-I-Ita-Fre-Ger-Por-Tur-Dut-Gre-Hrv-Hun-Ind-Nor-Rum-Srp by DCINE.mkv
Encoded date                     : UTC 2019-03-04 19:46:20
Writing application              : mkvmerge v7.1.0 ('Good Love') 32bit built on Jul 27 2014 12:59:18
Writing library                  : libebml v1.3.0 + libmatroska v1.4.1
DURATION                         : 01:11:20.524000000
NUMBER_OF_FRAMES                 : 446
NUMBER_OF_BYTES                  : 666106
_STATISTICS_WRITING_APP          : mkvmerge v7.1.0 ('Good Love') 32bit built on Jul 27 2014 12:59:18
_STATISTICS_WRITING_DATE_UTC     : 2019-03-04 19:46:20
_STATISTICS_TAGS                 : BPS DURATION NUMBER_OF_FRAMES NUMBER_OF_BYTES

Video
ID                               : 1
Format                           : AVC
Format/Info                      : Advanced Video Codec
Format profile                   : High@L4.1
Format settings, CABAC           : Yes
Format settings, ReFrames        : 12 frames
Codec ID                         : V_MPEG4/ISO/AVC
Duration                         : 1h 11mn
Bit rate                         : 7 777 Kbps
Width                            : 954 pixels
Height                           : 720 pixels
Display aspect ratio             : 4:3
Frame rate mode                  : Variable
Frame rate                       : 23.976 fps
Color space                      : YUV
Chroma subsampling               : 4:2:0
Bit depth                        : 8 bits
Scan type                        : Progressive
Bits/(Pixel*Frame)               : 0.472
Stream size                      : 3.89 GiB (84%)
Writing library                  : x264 core 155 r2901 7d0ff22
Encoding settings                : cabac=1 / ref=12 / deblock=1:0:0 / analyse=0x3:0x133 / me=umh / subme=10 / psy=1 / psy_rd=1.00:0.00 / mixed_ref=1 / me_range=24 / chroma_me=1 / trellis=2 / 8x8dct=1 / cqm=0 / deadzone=21,11 / fast_pskip=1 / chroma_qp_offset=-2 / threads=3 / lookahead_threads=1 / sliced_threads=0 / nr=0 / decimate=1 / interlaced=0 / bluray_compat=0 / constrained_intra=0 / bframes=8 / b_pyramid=2 / b_adapt=2 / b_bias=0 / direct=3 / weightb=1 / open_gop=0 / weightp=2 / keyint=240 / keyint_min=24 / scenecut=40 / intra_refresh=0 / rc_lookahead=60 / rc=crf / mbtree=1 / crf=19.0 / qcomp=0.60 / qpmin=0 / qpmax=69 / qpstep=4 / vbv_maxrate=62500 / vbv_bufsize=78125 / crf_max=0.0 / nal_hrd=none / filler=0 / ip_ratio=1.40 / aq=1:1.00
Default                          : Yes
Forced                           : No
DURATION                         : 01:11:35.792000000
NUMBER_OF_FRAMES                 : 102996
NUMBER_OF_BYTES                  : 4272901441
_STATISTICS_WRITING_APP          : mkvmerge v7.1.0 ('Good Love') 32bit built on Jul 27 2014 12:59:18
_STATISTICS_WRITING_DATE_UTC     : 2019-03-04 19:46:20
_STATISTICS_TAGS                 : BPS DURATION NUMBER_OF_FRAMES NUMBER_OF_BYTES
Color primaries                  : BT.709-5, BT.1361, IEC 61966-2-4, SMPTE RP177
Transfer characteristics         : BT.709-5, BT.1361
Matrix coefficients              : BT.709-5, BT.1361, IEC 61966-2-4 709, SMPTE RP177

Audio #1
ID                               : 2
Format                           : MPEG Audio
Format version                   : Version 1
Format profile                   : Layer 2
Codec ID                         : A_MPEG/L2
Codec ID/Hint                    : MP2
Duration                         : 1h 11mn
Bit rate mode                    : Constant
Bit rate                         : 128 Kbps
Channel(s)                       : 2 channels
Sampling rate                    : 48.0 KHz
Compression mode                 : Lossy
Stream size                      : 65.6 MiB (1%)
Title                            : Doblaje neutro angelino para cines de 1944
Language                         : Spanish
Default                          : Yes
Forced                           : Yes

Audio #2
ID                               : 3
Format                           : E-AC-3
Format/Info                      : Audio Coding 3
Codec ID                         : A_EAC3
Duration                         : 1h 11mn
Bit rate mode                    : Constant
Bit rate                         : 640 Kbps
Channel(s)                       : 6 channels
Channel positions                : Front: L C R, Side: L R, LFE
Sampling rate                    : 48.0 KHz
Compression mode                 : Lossy
Stream size                      : 328 MiB (7%)
Title                            : Original
Language                         : English
Default                          : No
Forced                           : No

Audio #3
ID                               : 4
Format                           : MPEG Audio
Format version                   : Version 1
Format profile                   : Layer 2
Codec ID                         : A_MPEG/L2
Codec ID/Hint                    : MP2
Duration                         : 1h 11mn
Bit rate mode                    : Constant
Bit rate                         : 128 Kbps
Channel(s)                       : 2 channels
Sampling rate                    : 48.0 KHz
Compression mode                 : Lossy
Delay relative to video          : 500ms
Stream size                      : 65.6 MiB (1%)
Title                            : Doppiaggio originale 1949
Language                         : Italian
Default                          : No
Forced                           : No

Audio #4
ID                               : 5
Format                           : MPEG Audio
Format version                   : Version 1
Format profile                   : Layer 2
Codec ID                         : A_MPEG/L2
Codec ID/Hint                    : MP2
Duration                         : 1h 11mn
Bit rate mode                    : Constant
Bit rate                         : 128 Kbps
Channel(s)                       : 2 channels
Sampling rate                    : 48.0 KHz
Compression mode                 : Lossy
Delay relative to video          : 500ms
Stream size                      : 65.6 MiB (1%)
Title                            : Doublaje original 1948
Language                         : French
Default                          : No
Forced                           : No

Audio #5
ID                               : 6
Format                           : MPEG Audio
Format version                   : Version 1
Format profile                   : Layer 2
Codec ID                         : A_MPEG/L2
Codec ID/Hint                    : MP2
Duration                         : 1h 11mn
Bit rate mode                    : Constant
Bit rate                         : 128 Kbps
Channel(s)                       : 2 channels
Sampling rate                    : 48.0 KHz
Compression mode                 : Lossy
Stream size                      : 65.6 MiB (1%)
Title                            : Synchronisation von 1954
Language                         : German
Default                          : No
Forced                           : No

Audio #6
ID                               : 8
Format                           : MPEG Audio
Format version                   : Version 1
Format profile                   : Layer 2
Codec ID                         : A_MPEG/L2
Codec ID/Hint                    : MP2
Duration                         : 1h 11mn
Bit rate mode                    : Constant
Bit rate                         : 128 Kbps
Channel(s)                       : 2 channels
Sampling rate                    : 48.0 KHz
Compression mode                 : Lossy
Stream size                      : 65.6 MiB (1%)
Title                            : Dublagem original 1945
Language                         : Portuguese
Default                          : No
Forced                           : No

Text #1
ID                               : 7
Format                           : UTF-8
Codec ID                         : S_TEXT/UTF8
Codec ID/Info                    : UTF-8 Plain Text
Title                            : Forzados
Language                         : Spanish
Default                          : Yes
Forced                           : Yes

Text #2
ID                               : 9
Format                           : UTF-8
Codec ID                         : S_TEXT/UTF8
Codec ID/Info                    : UTF-8 Plain Text
Title                            : Completos
Language                         : Spanish
Default                          : No
Forced                           : No

Text #3
ID                               : 10
Format                           : UTF-8
Codec ID                         : S_TEXT/UTF8
Codec ID/Info                    : UTF-8 Plain Text
Language                         : English
Default                          : No
Forced                           : No

Text #4
ID                               : 11
Format                           : VobSub
Muxing mode                      : zlib
Codec ID                         : S_VOBSUB
Codec ID/Info                    : The same subtitle format used on DVDs
Language                         : Italian
Default                          : No
Forced                           : No

Text #5
ID                               : 12
Format                           : UTF-8
Codec ID                         : S_TEXT/UTF8
Codec ID/Info                    : UTF-8 Plain Text
Language                         : French
Default                          : No
Forced                           : No

Text #6
ID                               : 13
Format                           : UTF-8
Codec ID                         : S_TEXT/UTF8
Codec ID/Info                    : UTF-8 Plain Text
Language                         : German
Default                          : No
Forced                           : No

Text #7
ID                               : 14
Format                           : UTF-8
Codec ID                         : S_TEXT/UTF8
Codec ID/Info                    : UTF-8 Plain Text
Language                         : Portuguese
Default                          : No
Forced                           : No

Text #8
ID                               : 15
Format                           : UTF-8
Codec ID                         : S_TEXT/UTF8
Codec ID/Info                    : UTF-8 Plain Text
Language                         : Turkish
Default                          : No
Forced                           : No

Text #9
ID                               : 16
Format                           : UTF-8
Codec ID                         : S_TEXT/UTF8
Codec ID/Info                    : UTF-8 Plain Text
Language                         : Dutch
Default                          : No
Forced                           : No

Text #10
ID                               : 17
Format                           : UTF-8
Codec ID                         : S_TEXT/UTF8
Codec ID/Info                    : UTF-8 Plain Text
Language                         : Greek
Default                          : No
Forced                           : No

Text #11
ID                               : 18
Format                           : UTF-8
Codec ID                         : S_TEXT/UTF8
Codec ID/Info                    : UTF-8 Plain Text
Language                         : Croatian
Default                          : No
Forced                           : No

Text #12
ID                               : 19
Format                           : UTF-8
Codec ID                         : S_TEXT/UTF8
Codec ID/Info                    : UTF-8 Plain Text
Language                         : Hungarian
Default                          : No
Forced                           : No

Text #13
ID                               : 20
Format                           : UTF-8
Codec ID                         : S_TEXT/UTF8
Codec ID/Info                    : UTF-8 Plain Text
Language                         : Indonesian
Default                          : No
Forced                           : No

Text #14
ID                               : 21
Format                           : UTF-8
Codec ID                         : S_TEXT/UTF8
Codec ID/Info                    : UTF-8 Plain Text
Language                         : Norwegian
Default                          : No
Forced                           : No

Text #15
ID                               : 22
Format                           : UTF-8
Codec ID                         : S_TEXT/UTF8
Codec ID/Info                    : UTF-8 Plain Text
Language                         : Romanian
Default                          : No
Forced                           : No

Text #16
ID                               : 23
Format                           : UTF-8
Codec ID                         : S_TEXT/UTF8
Codec ID/Info                    : UTF-8 Plain Text
Language                         : Serbian
Default                          : No
Forced                           : No




Capturas:


Imagen Imagen
Imagen Imagen
Imagen Imagen
Imagen Imagen
Imagen Imagen



Enlace:

eD2K link 1944 Los tres caballeros (The Three Caballeros) (VV. DD., 1944) WEB-DLRip 720p (S...ubs by DCINE.mkv [4.62 Gb] 

DD:

https://mega.nz/#!9x5lkS5a!GfdEYDRxG389 ... xYtPTbM-zg

Re: The Three Caballeros (VV. DD., 1944) WEB-DLRip 720p Multiaudio Multisubs

Publicado: 31 May 2019, 14:45
por tonapar1
Muchas gracias por el ripeo y los subs a dcine y tiger74 . Un saludo a ambos.

Re: The Three Caballeros (VV. DD., 1944) WEB-DLRip 720p Multiaudio Multisubs

Publicado: 31 May 2019, 21:33
por pantsdecuero
Impresionante aporte !!! Muchísimas gracias dcine y tiger74, hacía rato que quería tener una copia de esta película en increíble buena calidad. Saludos !

Re: The Three Caballeros (VV. DD., 1944) WEB-DLRip 720p Multiaudio Multisubs

Publicado: 31 May 2019, 23:45
por mifune
Gracias, fenómeno. La de veces que me la vería de niño... y las doce pruebas de Asterix otras tantas.

Re: The Three Caballeros (VV. DD., 1944) WEB-DLRip 720p Multiaudio Multisubs

Publicado: 01 Jun 2019, 05:50
por yogiyamada
Excelente aporte, mil gracias.

Re: The Three Caballeros (VV. DD., 1944) WEB-DLRip 720p Multiaudio Multisubs

Publicado: 01 Jun 2019, 07:17
por janca
Genial!

Re: The Three Caballeros (VV. DD., 1944) WEB-DLRip 720p Multiaudio Multisubs

Publicado: 01 Jun 2019, 17:20
por radiotelefonia
Agregá esta publicidad argentina
Imagen

Re: The Three Caballeros (VV. DD., 1944) WEB-DLRip 720p Multiaudio Multisubs

Publicado: 01 Jun 2019, 18:37
por DCINE
Añadida, gracias

Re: The Three Caballeros (VV. DD., 1944) WEB-DLRip 720p Multiaudio Multisubs

Publicado: 02 Jun 2019, 12:19
por yojimbo
Muchas gracias, DCINE y tiger74.

Re: The Three Caballeros (VV. DD., 1944) WEB-DLRip 720p Multiaudio Multisubs

Publicado: 09 Jun 2019, 00:24
por jail
yojimbo escribió:
02 Jun 2019, 12:19
Muchas gracias, DCINE y tiger74.