The Iron Giant (Brad Bird, 1999) BDRip 1080p Dual SE-SI

Puntuación
7,3/10
3 votos

El gigante de hierro

Moderador: yogiyamada

Reglas del Foro
Norma de los tres años.
Responder
Avatar de Usuario
eulsus
 
Mensajes: 1625
Registrado: 08 Abr 2015, 01:14
Ubicación: La Palma
Agradecido : 1922 veces
Agradecimiento recibido: 2173 veces

Estados Unidos The Iron Giant (Brad Bird, 1999) BDRip 1080p Dual SE-SI

Mensaje por eulsus » 15 May 2019, 01:05

baldomp en DivX Clásico (Enero-2019)




The Iron Giant
Signature Edition


Brad Bird, 1999

Imagen

El gigante de hierro


Imagen

Año 1999
Duración 1 h 29' 58''
País Imagen
Director Brad Bird
Guión Brad Bird, Tim McCanlies, Brent Forrester (sin acreditar). Cuento: Ted Hughes
Música Michael Kamen
Fotografía Steven Wilzbach
Reparto Jennifer Aniston ... Annie Hughes, Harry Connick Jr. ... Dean McCoppin, Vin Diesel ... The Iron Giant, James Gammon ... Foreman Marv Loach / Floyd Turbeaux, Cloris Leachman ... Mrs. Tensedge, Christopher McDonald ... Kent Mansley, John Mahoney ... General Rogard, Eli Marienthal ... Hogarth Hughes, M. Emmet Walsh ... Earl Stutz
Productora Warner Bros. | Warner Bros. Animation | Warner Bros. Feature Animation
Género Animación | Familiar | Ciencia ficción | Acción | Aventuras | Comedia | Drama

SINOPSIS
En 1957, en la pequeña localidad de Rockwell, alguien ha visto cómo un enorme hombre metálico caía al mar. Un imaginativo niño descubre que se trata de un robot gigante, cuyo apetito de metal es insaciable. Entre ambos nace una fuerte amistad, pero el gobierno envía a un agente para investigar los hechos. El niño esconde a su nuevo compañero en la chatarrería de un amigo. Pero los habitantes del pueblo comienzan a sentirse aterrados porque creen que es una nueva amenaza en plena Guerra Fría...(FILMAFFINITY)


Código: Seleccionar todo

Format                      : Matroska
Format version              : Version 4 / Version 2
File size                   : 5.60 GiB
Duration                    : 1h 29mn
Overall bit rate            : 8 914 Kbps
Encoded date                : UTC 2019-01-08 11:37:47
Writing application         : mkvmerge v12.0.0 ('Trust / Lust') 64bit
Writing library             : libebml v1.3.4 + libmatroska v1.4.5

Video
ID                          : 1
Format                      : AVC
Format/Info                 : Advanced Video Codec
Format profile              : High@L4.1
Format settings, CABAC      : Yes
Format settings, ReFrames   : 5 frames
Codec ID                    : V_MPEG4/ISO/AVC
Duration                    : 1h 29mn
Bit rate                    : 7 182 Kbps
Width                       : 1 920 pixels
Height                      : 800 pixels
Display aspect ratio        : 2.40:1
Frame rate mode             : Constant
Frame rate                  : 23.976 (24000/1001) fps
Color space                 : YUV
Chroma subsampling          : 4:2:0
Bit depth                   : 8 bits
Scan type                   : Progressive
Bits/(Pixel*Frame)          : 0.195
Stream size                 : 4.51 GiB (81%)
Writing library             : x264 core 148 r2705 3f5ed56
Encoding settings           : cabac=1 / ref=5 / deblock=1:-3:-3 / analyse=0x3:0x113 / me=umh / subme=8 / psy=1 / psy_rd=1.10:0.00 / mixed_ref=1 / me_range=16 / chroma_me=1 / trellis=1 / 8x8dct=1 / cqm=0 / deadzone=21,11 / fast_pskip=1 / chroma_qp_offset=-2 / threads=12 / lookahead_threads=2 / sliced_threads=0 / nr=0 / decimate=1 / interlaced=0 / bluray_compat=0 / constrained_intra=0 / bframes=3 / b_pyramid=2 / b_adapt=2 / b_bias=0 / direct=3 / weightb=1 / open_gop=0 / weightp=2 / keyint=240 / keyint_min=24 / scenecut=40 / intra_refresh=0 / rc_lookahead=50 / rc=2pass / mbtree=1 / bitrate=7182 / ratetol=1.0 / qcomp=0.60 / qpmin=0 / qpmax=69 / qpstep=4 / cplxblur=20.0 / qblur=0.5 / ip_ratio=1.40 / aq=3:0.70
Default                     : Yes
Forced                      : No

Audio #1
ID                          : 2
Format                      : AAC
Format/Info                 : Advanced Audio Codec
Format profile              : LC
Codec ID                    : A_AAC
Duration                    : 1h 29mn
Bit rate                    : 221 Kbps
Channel(s)                  : 2 channels
Channel positions           : Front: L R
Sampling rate               : 48.0 KHz
Frame rate                  : 46.875 fps (1024 spf)
Compression mode            : Lossy
Stream size                 : 142 MiB (2%)
Title                       : Castellano
Language                    : Spanish
Default                     : Yes
Forced                      : No

Audio #2
ID                          : 3
Format                      : DTS
Format/Info                 : Digital Theater Systems
Mode                        : 16
Format settings, Endianness : Big
Codec ID                    : A_DTS
Duration                    : 1h 29mn
Bit rate mode               : Constant
Bit rate                    : 1 509 Kbps
Channel(s)                  : 6 channels
Channel positions           : Front: L C R, Side: L R, LFE
Sampling rate               : 48.0 KHz
Frame rate                  : 93.750 fps (512 spf)
Bit depth                   : 24 bits
Compression mode            : Lossy
Stream size                 : 971 MiB (17%)
Title                       : English DTS
Language                    : English
Default                     : No
Forced                      : No

Text #1
ID                          : 4
Format                      : UTF-8
Codec ID                    : S_TEXT/UTF8
Codec ID/Info               : UTF-8 Plain Text
Duration                    : 1h 28mn
Bit rate                    : 39 bps
Count of elements           : 883
Stream size                 : 25.5 KiB (0%)
Title                       : Castellano
Language                    : Spanish
Default                     : No
Forced                      : No

Text #2
ID                          : 5
Format                      : UTF-8
Codec ID                    : S_TEXT/UTF8
Codec ID/Info               : UTF-8 Plain Text
Duration                    : 1h 28mn
Bit rate                    : 47 bps
Count of elements           : 1002
Stream size                 : 31.1 KiB (0%)
Title                       : English
Language                    : English
Default                     : No
Forced                      : No


DATOS TÉCNICOS:
BDRip 1080p con el audio inglés DTS, audio castellano, capítulos y subtítulos...
Definitivamente se trata de la "Signature version" con un par de escenas añadidas (realmente un par de minutos más correspondientes a una escena de 15 segundos y otra de 80 segundos. más información

El stream principal lo bajé en su dia de un tracker (.ru). No recuerdo el origen del doblaje. Los subtítulos en castellano han sido re-montados (puesto que no encuentro para esta versión) traduciendo y encajando las nuevas escenas...


CAPTURAS
Imagen
Imagen
Imagen
Imagen
Imagen
Imagen
Imagen
Imagen
Imagen
Imagen

ENLACE
Archivo matroska Dual en Inglés y en Español, con subtítulos en Inglés y en Español.

Imagen
Imagen
Antonio García-Trevijano Forte (1927-2018)
"Para que yo sea libre, todos tienen que ser libres"

Abstención activa hasta que haya Libertad Colectiva

Avatar de Usuario
yogiyamada
 
Mensajes: 737
Registrado: 02 Oct 2012, 20:44
Agradecido : 32 veces
Agradecimiento recibido: 232 veces

Re: The Iron Giant (Brad Bird, 1999) BDRip 1080p Dual SE-SI

Mensaje por yogiyamada » 15 May 2019, 02:38

Gran aporte. La mejor peli de Brad Bird que después perdió el rumbo. Muchas gracias por publicarla.
Aportemos todos a que el Cine hable al alma al compartirlo libremente.

xeneise007
 
Mensajes: 970
Registrado: 08 Ene 2013, 12:19
Ubicación: Reino de Aragón
Agradecido : 1129 veces
Agradecimiento recibido: 313 veces

Re: The Iron Giant (Brad Bird, 1999) BDRip 1080p Dual SE-SI

Mensaje por xeneise007 » 15 May 2019, 06:28

Gracias Eulsus, una de las películas de la infancia de mis hijos (lo que significa que la vi intensivamente durante varios meses....) ;)

ciberyago
 
Mensajes: 2224
Registrado: 20 Oct 2012, 07:26
Agradecimiento recibido: 326 veces

Re: The Iron Giant (Brad Bird, 1999) BDRip 1080p Dual SE-SI

Mensaje por ciberyago » 15 May 2019, 07:52

Muchas gracias!

Avatar de Usuario
eulsus
 
Mensajes: 1625
Registrado: 08 Abr 2015, 01:14
Ubicación: La Palma
Agradecido : 1922 veces
Agradecimiento recibido: 2173 veces

Re: The Iron Giant (Brad Bird, 1999) BDRip 1080p Dual SE-SI

Mensaje por eulsus » 15 May 2019, 09:43

yogiyamada escribió:
15 May 2019, 02:38
Gran aporte. La mejor peli de Brad Bird que después perdió el rumbo. Muchas gracias por publicarla.

Ya has dejado bendecida la película con tu comentario, yogi, tú que eres la persona más experta en cine de animación del foro. :) ;)
Imagen
Antonio García-Trevijano Forte (1927-2018)
"Para que yo sea libre, todos tienen que ser libres"

Abstención activa hasta que haya Libertad Colectiva

fruega
 
Mensajes: 402
Registrado: 19 Oct 2012, 20:41
Agradecimiento recibido: 140 veces

Re: The Iron Giant (Brad Bird, 1999) BDRip 1080p Dual SE-SI

Mensaje por fruega » 15 May 2019, 10:24

Muchas gracias.

Avatar de Usuario
tonapar1
 
Mensajes: 3880
Registrado: 16 Oct 2012, 20:19
Agradecido : 955 veces
Agradecimiento recibido: 1052 veces

Re: The Iron Giant (Brad Bird, 1999) BDRip 1080p Dual SE-SI

Mensaje por tonapar1 » 15 May 2019, 20:50

Muchas gracias por el ripeo y los subs a baldomp y a eulsus. Un saludo a ambos.

Avatar de Usuario
yogiyamada
 
Mensajes: 737
Registrado: 02 Oct 2012, 20:44
Agradecido : 32 veces
Agradecimiento recibido: 232 veces

Re: The Iron Giant (Brad Bird, 1999) BDRip 1080p Dual SE-SI

Mensaje por yogiyamada » 16 May 2019, 04:58

eulsus escribió:
15 May 2019, 09:43
yogiyamada escribió:
15 May 2019, 02:38
Gran aporte. La mejor peli de Brad Bird que después perdió el rumbo. Muchas gracias por publicarla.

Ya has dejado bendecida la película con tu comentario, yogi, tú que eres la persona más experta en cine de animación del foro. :) ;)
No que va, hay otros que desde el anonimato son sapiencia pura del dibujo animado.
Aportemos todos a que el Cine hable al alma al compartirlo libremente.

Responder

Volver a “Largos Animación”