Página 1 de 1

Daliás idök (József Gémes, 1983) DVDRip VOSE

Publicado: 13 Mar 2019, 03:34
por yogiyamada
Tiempos Heroicos

Imagen

Imagen

SINOPSIS

Largometraje de animación húngaro que utiliza la técnica de animación al óleo y se adscribe al género épico. Narra la vida de Miklós Toldi, héroe legendario del folclore húngaro que vivió en el siglo XIV y que Janos Arany, uno de los mayores poetas de la nación, retrató en su obra más célebre, un poema épico compuesto de tres partes conocido como La trilogía Tóldi. (FILMAFFINITY)


FICHA ARTÍSTICA

Año
1983
Duración
99 min.
País
Hungría
Dirección
József Gémes
Guion
János Arany, József Gémes
Música
János Decsényi
Fotografía
György Varga
Género
Drama. Aventuras | Biográfico. Histórico.
Productora
MAFILM Pannónia Filmstúdió
Reparto (voces)
Adrienne Csengery, Gyula Szabó

COMENTARIO PERSONAL
Ganadora del Festival de Annecy en 1985, esta obra animada húngara propone a través de un trazo pictórico la biografía de Miklós Toldi, héroe legendario de la tradición folclórica húngara que vivió en el siglo XIV y que Janos Arany, uno de los mayores poetas de la nación, retrató en su obra más célebre, un poema épico compuesto de tres partes conocido como La trilogía Tóldi. Con una técnica bastante parecida a la empleada por Alexander Petrov, o al polaco Witold Giersz, pintura animada, que fundamentalmente consiste en dibujar cada plano sobre una plancha de cristal como si de un cuadro se tratara, donde el lienzo es sustituido por el cristal, en la actualidad he visto trabajos de pintura acrílica sobre acrílico. El proceso es muy laborioso y complejo. Este largometraje fue llevado a cabo por un pequeño grupo de animadores entre los que se encontraba el ruso Alexander Petrov (El viejo y el Mar). Este filme tiene un valor expresivo y emotivo con planos que se convierten en verdaderos cuadros, no obstante hay un uso excesivo, me parece, del plano congelado, aunque en contexto se entienda por la extrema dificultad técnica y de presupuesto de llevar a cabo semejante proyecto. Hice el rip del DVD de Tik ajustando los subtítulos que tradujo el buen amigo Qrosawa del extinto veinticuatrofps.


DATOS TÉCNICOS

Código: Seleccionar todo

Format                      : MPEG-4
Format profile              : Base Media
Codec ID                    : isom (isom)
File size                   : 1.37 GiB
Duration                    : 1 h 19 min
Overall bit rate            : 2 470 kb/s
Encoded date                : UTC 2019-03-05 16:32:12
Tagged date                 : UTC 2019-03-05 16:32:12

Video
ID                          : 1
Format                      : AVC
Format/Info                 : Advanced Video Codec
Format profile              : High@L4.1
Format settings             : CABAC / 4 Ref Frames
Format settings, CABAC      : Yes
Format settings, ReFrames   : 4 frames
Codec ID                    : avc1
Codec ID/Info               : Advanced Video Coding
Duration                    : 1 h 19 min
Bit rate                    : 2 107 kb/s
Maximum bit rate            : 29.5 Mb/s
Width                       : 720 pixels
Height                      : 576 pixels
Display aspect ratio        : 4:3
Original display aspect rat : 4:3
Frame rate mode             : Constant
Frame rate                  : 25.000 FPS
Standard                    : PAL
Color space                 : YUV
Chroma subsampling          : 4:2:0
Bit depth                   : 8 bits
Scan type                   : Progressive
Bits/(Pixel*Frame)          : 0.203
Stream size                 : 1.15 GiB (84%)
Writing library             : x264 core 155 r2901 7d0ff22
Encoding settings           : cabac=1 / ref=4 / deblock=1:1:1 / analyse=0x3:0x133 / me=hex / subme=7 / psy=1 / psy_rd=1.00:0.15 / mixed_ref=1 / me_range=16 / chroma_me=1 / trellis=2 / 8x8dct=1 / cqm=0 / deadzone=21,11 / fast_pskip=0 / chroma_qp_offset=-3 / threads=4 / lookahead_threads=1 / sliced_threads=0 / nr=0 / decimate=1 / interlaced=0 / bluray_compat=0 / constrained_intra=0 / bframes=5 / b_pyramid=2 / b_adapt=2 / b_bias=0 / direct=1 / weightb=1 / open_gop=0 / weightp=2 / keyint=250 / keyint_min=25 / scenecut=40 / intra_refresh=0 / rc_lookahead=60 / rc=abr / mbtree=1 / bitrate=2107 / ratetol=1.0 / qcomp=0.60 / qpmin=0 / qpmax=69 / qpstep=4 / ip_ratio=1.40 / aq=1:1.00
Encoded date                : UTC 2019-03-05 14:57:28
Tagged date                 : UTC 2019-03-05 16:32:22

Audio
ID                          : 2
Format                      : AC-3
Format/Info                 : Audio Coding 3
Codec ID                    : ac-3
Duration                    : 1 h 19 min
Bit rate mode               : Constant
Bit rate                    : 384 kb/s
Maximum bit rate            : 406 kb/s
Channel(s)                  : 2 channels
Channel positions           : Front: L R
Sampling rate               : 48.0 kHz
Frame rate                  : 31.250 FPS (1536 SPF)
Bit depth                   : 16 bits
Compression mode            : Lossy
Stream size                 : 218 MiB (16%)
Service kind                : Complete Main
Encoded date                : UTC 2019-03-05 16:32:17
Tagged date                 : UTC 2019-03-05 16:32:22

CAPTURAS

Imagen
Imagen
Imagen
Imagen
Imagen
Imagen


Re: Daliás idök (József Gémes, 1983) DVDRip VOSE

Publicado: 13 Mar 2019, 03:41
por ciberyago
Muchas gracias!

Re: Daliás idök (József Gémes, 1983) DVDRip VOSE

Publicado: 13 Mar 2019, 04:41
por yogiyamada
ciberyago escribió:
13 Mar 2019, 03:41
Muchas gracias!
De nada, buen provecho con la animación.

Re: Daliás idök (József Gémes, 1983) DVDRip VOSE

Publicado: 13 Mar 2019, 14:46
por jail
Gracias, yogiyamada.

Re: Daliás idök (József Gémes, 1983) DVDRip VOSE

Publicado: 13 Mar 2019, 21:24
por ostrata
Gracias. :)

Saludos.

Re: Daliás idök (József Gémes, 1983) DVDRip VOSE

Publicado: 13 Mar 2019, 23:58
por gatatitania
Mil gracias, Yogiyamada :aplauso: :aplauso: :aplauso:

Re: Daliás idök (József Gémes, 1983) DVDRip VOSE

Publicado: 14 Mar 2019, 00:50
por yogiyamada
ostrata escribió:
13 Mar 2019, 21:24
Gracias. :)

Saludos.
gatatitania escribió:
13 Mar 2019, 23:58
Mil gracias, Yogiyamada :aplauso: :aplauso: :aplauso:
jail escribió:
13 Mar 2019, 14:46
Gracias, yogiyamada.
De nada, que la disfrutéis

Re: Daliás idök (József Gémes, 1983) DVDRip VOSE

Publicado: 18 May 2019, 16:55
por yojimbo
Muchas gracias, yogiyamada y Qrosawa.

Re: Daliás idök (József Gémes, 1983) DVDRip VOSE

Publicado: 19 May 2019, 02:55
por yogiyamada
yojimbo escribió:
18 May 2019, 16:55
Muchas gracias, yogiyamada y Qrosawa.
Que la disfrutéis.