Rupan sansei: Kariosutoro no shiro (Hayao Miyazaki, 1979) BDRip 1080p VOSE

Puntuación
6,5/10
2 votos

Moderador: yogiyamada

Reglas del Foro
Norma de los tres años.
Responder
Avatar de Usuario
yogiyamada
 
Mensajes: 774
Registrado: 02 Oct 2012, 20:44
Agradecido : 41 veces
Agradecimiento recibido: 282 veces

Japón Rupan sansei: Kariosutoro no shiro (Hayao Miyazaki, 1979) BDRip 1080p VOSE

Mensaje por yogiyamada » 11 Feb 2019, 23:35

El castillo de
Cagliostro

Imagen

Imagen

SINOPSIS
Lupin, un elegante y atlético ladrón, y su compañero Jigen viajan al pequeño ducado europeo de Cagliostro. Allí ayudarán a la bella Clarice, que intenta librarse del temible Conde Cagliostro, e intentarán resolver el misterio de un tesoro oculto que data del siglo XV. (FILMAFFINITY)

FICHA ARTÍSTICA

Año
1979
Duración
99 min.
País
Japón
Dirección
Hayao Miyazaki
Guion
Hayao Miyazaki, Haruya Yamazaki, Yasuo Otsuka
Música
Yuji Ohno
Fotografía
Hirokata Takahashi
Productora
Telecom Animation Film / Tokyo Movie Shinsha

Reparto (voces)
Yasuo Yamada, Eiko Masuyama, Kiyoshi Kobayashi, Makio Inoue, Gorô Naya, Sumi Shimamoto

COMENTARIO PERSONAL
Para los que gustan de la obra de Miyazaki, este es su primer film. Con buen ritmo y gran manejo de la narrativa audiovisual animada Hayao incursiona por primera vez en la pantalla grande y resulta interesante descubrir en esta ópera prima el talento y visión que ya tenía este autor japonés respecto de la entelequia animada. Sin duda que el haber dirigido años atrás las series para TV. Conan y la Lupin III le permitió tener cierto manejo de la dirección, especialmente si retomaba el universo de Lupin. La peli resulta fresca y muy entretenida y se puede apreciar claramente como el autor de Porco Rosso ya tenía cierta obsesión por los artefactos voladores y extravagancias tecnológicas. En esta obra no veremos animales mitológicos ni tampoco la acostumbrada inmersión en un mundo mágico total, pero hay un sello indiscutible que goza en la perspectiva del acting que hace que lo inanimado de los personajes cobre una supervida indescriptible que está presente en este film y que podemos reconocer en sus obras posteriores.

DATOS TÉCNICOS

Código: Seleccionar todo

Format                      : MPEG-4
Format profile              : Base Media
Codec ID                    : isom (isom)
File size                   : 2.59 GiB
Duration                    : 1 h 39 min
Overall bit rate            : 3 731 kb/s
Encoded date                : UTC 2018-04-14 23:14:37
Tagged date                 : UTC 2018-04-14 23:14:37

Video
ID                          : 1
Format                      : AVC
Format/Info                 : Advanced Video Codec
Format profile              : High@L4.1
Format settings             : CABAC / 4 Ref Frames
Format settings, CABAC      : Yes
Format settings, ReFrames   : 4 frames
Codec ID                    : avc1
Codec ID/Info               : Advanced Video Coding
Duration                    : 1 h 39 min
Bit rate                    : 3 599 kb/s
Maximum bit rate            : 18.1 Mb/s
Width                       : 1 920 pixels
Height                      : 1 080 pixels
Display aspect ratio        : 16:9
Frame rate mode             : Constant
Frame rate                  : 29.970 (30000/1001) FPS
Color space                 : YUV
Chroma subsampling          : 4:2:0
Bit depth                   : 8 bits
Scan type                   : Progressive
Bits/(Pixel*Frame)          : 0.058
Stream size                 : 2.50 GiB (96%)
Writing library             : x264 core 155 r2901 7d0ff22
Encoding settings           : cabac=1 / ref=4 / deblock=1:-1:-1 / analyse=0x3:0x133 / me=hex / subme=7 / psy=1 / psy_rd=0.40:0.00 / mixed_ref=1 / me_range=16 / chroma_me=1 / trellis=2 / 8x8dct=1 / cqm=0 / deadzone=21,11 / fast_pskip=0 / chroma_qp_offset=-2 / threads=6 / lookahead_threads=1 / sliced_threads=0 / nr=0 / decimate=1 / interlaced=0 / bluray_compat=0 / constrained_intra=0 / bframes=4 / b_pyramid=2 / b_adapt=2 / b_bias=0 / direct=1 / weightb=1 / open_gop=0 / weightp=2 / keyint=300 / keyint_min=29 / scenecut=40 / intra_refresh=0 / rc_lookahead=60 / rc=2pass / mbtree=1 / bitrate=3599 / ratetol=1.0 / qcomp=0.60 / qpmin=0 / qpmax=69 / qpstep=4 / cplxblur=20.0 / qblur=0.5 / ip_ratio=1.40 / aq=1:0.60
Encoded date                : UTC 2018-04-14 23:00:37
Tagged date                 : UTC 2018-04-14 23:14:49

Audio
ID                          : 2
Format                      : MPEG Audio
Format version              : Version 1
Format profile              : Layer 3
Format settings             : Joint stereo / MS Stereo
Codec ID                    : .mp3
Duration                    : 1 h 39 min
Bit rate mode               : Constant
Bit rate                    : 128 kb/s
Maximum bit rate            : 134 kb/s
Channel(s)                  : 2 channels
Sampling rate               : 44.1 kHz
Frame rate                  : 38.281 FPS (1152 SPF)
Compression mode            : Lossy
Stream size                 : 91.1 MiB (3%)
Writing library             : LAME3.99
Language                    : Japanese
Encoded date                : UTC 2018-04-14 23:14:45
Tagged date                 : UTC 2018-04-14 23:14:49
CAPTURAS

Imagen
Imagen
Imagen
Imagen
Imagen
Imagen
Aportemos todos a que el Cine hable al alma al compartirlo libremente.

ciberyago
 
Mensajes: 2252
Registrado: 20 Oct 2012, 07:26
Agradecimiento recibido: 337 veces

Re: Rupan sansei: Kariosutoro no shiro (Hayao Miyazaki, 1979) BDrip 1080p VOSE

Mensaje por ciberyago » 12 Feb 2019, 03:33

Muchas gracias!

Avatar de Usuario
yogiyamada
 
Mensajes: 774
Registrado: 02 Oct 2012, 20:44
Agradecido : 41 veces
Agradecimiento recibido: 282 veces

Re: Rupan sansei: Kariosutoro no shiro (Hayao Miyazaki, 1979) BDrip 1080p VOSE

Mensaje por yogiyamada » 12 Feb 2019, 05:00

ciberyago escribió:
12 Feb 2019, 03:33
Muchas gracias!
De nada, buen provecho animado.
Aportemos todos a que el Cine hable al alma al compartirlo libremente.

jail
 
Mensajes: 6062
Registrado: 18 Oct 2012, 15:34
Agradecido : 6623 veces
Agradecimiento recibido: 1835 veces

Re: Rupan sansei: Kariosutoro no shiro (Hayao Miyazaki, 1979) BDrip 1080p VOSE

Mensaje por jail » 12 Feb 2019, 09:35

Gracias, yogi, Alieneater y cokerotto.

Avatar de Usuario
yojimbo
 
Mensajes: 8854
Registrado: 18 Oct 2012, 14:25
Agradecido : 8755 veces
Agradecimiento recibido: 2096 veces

Re: Rupan sansei: Kariosutoro no shiro (Hayao Miyazaki, 1979) BDrip 1080p VOSE

Mensaje por yojimbo » 12 Feb 2019, 13:26

Muchas gracias, yogiyamada, Alieneater y cokerotto.

Avatar de Usuario
yogiyamada
 
Mensajes: 774
Registrado: 02 Oct 2012, 20:44
Agradecido : 41 veces
Agradecimiento recibido: 282 veces

Re: Rupan sansei: Kariosutoro no shiro (Hayao Miyazaki, 1979) BDrip 1080p VOSE

Mensaje por yogiyamada » 12 Feb 2019, 15:23

yojimbo escribió:
12 Feb 2019, 13:26
Muchas gracias, yogiyamada, Alieneater y cokerotto.
jail escribió:
12 Feb 2019, 09:35
Gracias, yogi, Alieneater y cokerotto.
De nada muchachos, que la disfrutéis.
Aportemos todos a que el Cine hable al alma al compartirlo libremente.

Avatar de Usuario
tonapar1
 
Mensajes: 4073
Registrado: 16 Oct 2012, 20:19
Agradecido : 1057 veces
Agradecimiento recibido: 1104 veces

Re: Rupan sansei: Kariosutoro no shiro (Hayao Miyazaki, 1979) BDrip 1080p VOSE

Mensaje por tonapar1 » 12 Feb 2019, 23:35

Muchas gracias por el ripeo y los subs a yogiyamada, Alieneater y cokerotto. Un saludo a todos ellos.

Avatar de Usuario
yogiyamada
 
Mensajes: 774
Registrado: 02 Oct 2012, 20:44
Agradecido : 41 veces
Agradecimiento recibido: 282 veces

Re: Rupan sansei: Kariosutoro no shiro (Hayao Miyazaki, 1979) BDrip 1080p VOSE

Mensaje por yogiyamada » 13 Feb 2019, 00:33

tonapar1 escribió:
12 Feb 2019, 23:35
Muchas gracias por el ripeo y los subs a yogiyamada, Alieneater y cokerotto. Un saludo a todos ellos.
De nada, buen provecho con la animación.
Aportemos todos a que el Cine hable al alma al compartirlo libremente.

Avatar de Usuario
gatatitania
 
Mensajes: 4395
Registrado: 16 Oct 2012, 18:27
Ubicación: Gatatitania es un gato hambriento, superviviente del planeta gatatitania...
Agradecido : 2322 veces
Agradecimiento recibido: 1240 veces

Re: Rupan sansei: Kariosutoro no shiro (Hayao Miyazaki, 1979) BDrip 1080p VOSE

Mensaje por gatatitania » 14 Feb 2019, 00:44

¡Muchas gracias a todos! Un verdader placer. Tenía una mala copia :drinks: :drinks: :drinks:

Avatar de Usuario
yogiyamada
 
Mensajes: 774
Registrado: 02 Oct 2012, 20:44
Agradecido : 41 veces
Agradecimiento recibido: 282 veces

Re: Rupan sansei: Kariosutoro no shiro (Hayao Miyazaki, 1979) BDrip 1080p VOSE

Mensaje por yogiyamada » 14 Feb 2019, 01:51

gatatitania escribió:
14 Feb 2019, 00:44
¡Muchas gracias a todos! Un verdader placer. Tenía una mala copia :drinks: :drinks: :drinks:
Me alegro un montón que puedas cambiarla. :hi:
Aportemos todos a que el Cine hable al alma al compartirlo libremente.

Responder

Volver a “Largos Animación”