The Polar Express (Robert Zemeckis, 2004) BDRip 720p Multiaudio Multisubs

Puntuación
Sin
puntuar

Moderador: yogiyamada

Reglas del Foro
Norma de los tres años.
Responder
Avatar de Usuario
DCINE
 
Mensajes: 1225
Registrado: 30 Jul 2016, 20:09
Agradecido : 780 veces
Agradecimiento recibido: 1928 veces

Estados Unidos The Polar Express (Robert Zemeckis, 2004) BDRip 720p Multiaudio Multisubs

Mensaje por DCINE » 26 Dic 2017, 10:10

The Polar Express
2004

Imagen


DIRECTOR: Robert Zemeckis
PRODUCTORA: Warner Bros. Pictures / Castle Rock Entertainment presentan una producción Playtone / Imagemovers / Golden Mean
GUIÓN: Robert Zemeckis, William Broyles Jr. (Libro: Chris Van Allsburg)
MÚSICA: Alan Silvestri
FOTOGRAFÍA: Don Burgess, Robert Presley



ARGUMENTO En una nevada noche de Navidad, un niño emprende un extraordinario viaje en tren hacia el Polo Norte. A partir de ese momento empieza una aventura que le servirá para conocerse a sí mismo y que le enseñará que la magia puede estar siempre presente en la vida a condición de creer en ella. (FILMAFFINITY) IMDB: http://www.imdb.com/title/tt0338348/



Reparto: Animation, Tom Hanks, Nona Gaye, Michael Jeter, Peter Scolari, Leslie Zemeckis, Eddie Deezen


Datos Técnicos:

[code]General:

Complete name : 2004 The Polar Express (Robert Zemeckis, 2004) BDRip 720p Multiaudio (ENG-ITA-FRE-GER-SPA) Multisub by ShivaShanti.mkv
Format : Matroska
Format version : Version 2
File size : 3.60 GiB
Duration : 1h 39mn
Overall bit rate : 5 155 Kbps
Encoded date : UTC 2011-12-19 20:36:54
Writing application : mkvmerge v5.2.0 ('I can't explain') built on Dec 18 2011 18:12:03
Writing library : libebml v1.2.3 + libmatroska v1.3.0
Attachment : Yes

Video
ID : 1
Format : AVC
Format/Info : Advanced Video Codec
Format profile : High@L4.1
Format settings, CABAC : Yes
Format settings, ReFrames : 6 frames
Codec ID : V_MPEG4/ISO/AVC
Duration : 1h 39mn
Bit rate : 2 813 Kbps
Width : 1 280 pixels
Height : 532 pixels
Display aspect ratio : 2.40:1
Frame rate : 23.976 fps
Color space : YUV
Chroma subsampling : 4:2:0
Bit depth : 8 bits
Scan type : Progressive
Bits/(Pixel*Frame) : 0.172
Stream size : 1.96 GiB (55%)
Title : x64 1280x532 Bitrate=2889 kbps AvQuant=18.823 Rip by ShivaShanti
Writing library : x264 core 120 r2120 0c7dab9
Encoding settings : cabac=1 / ref=6 / deblock=1:1:1 / analyse=0x3:0x133 / me=umh / subme=9 / psy=1 / psy_rd=0.40:0.00 / mixed_ref=1 / me_range=28 / chroma_me=1 / trellis=2 / 8x8dct=1 / cqm=0 / deadzone=21,11 / fast_pskip=0 / chroma_qp_offset=-2 / threads=12 / sliced_threads=0 / nr=0 / decimate=1 / interlaced=0 / bluray_compat=0 / constrained_intra=0 / bframes=5 / b_pyramid=2 / b_adapt=2 / b_bias=0 / direct=3 / weightb=1 / open_gop=0 / weightp=2 / keyint=240 / keyint_min=23 / scenecut=40 / intra_refresh=0 / rc_lookahead=60 / rc=crf / mbtree=1 / crf=15.6 / qcomp=0.60 / qpmin=0 / qpmax=69 / qpstep=4 / ip_ratio=1.40 / aq=1:0.60
Default : Yes
Forced : No

Audio #1
ID : 2
Format : AC-3
Format/Info : Audio Coding 3
Mode extension : CM (complete main)
Codec ID : A_AC3
Duration : 1h 39mn
Bit rate mode : Constant
Bit rate : 640 Kbps
Channel(s) : 6 channels
Channel positions : Front: L C R, Side: L R, LFE
Sampling rate : 48.0 KHz
Bit depth : 16 bits
Compression mode : Lossy
Stream size : 458 MiB (12%)
Title : English Ac3 5.1 chnls 640 kbps
Language : English
Default : Yes
Forced : No

Audio #2
ID : 3
Format : AC-3
Format/Info : Audio Coding 3
Mode extension : CM (complete main)
Codec ID : A_AC3
Duration : 1h 39mn
Bit rate mode : Constant
Bit rate : 640 Kbps
Channel(s) : 6 channels
Channel positions : Front: L C R, Side: L R, LFE
Sampling rate : 48.0 KHz
Bit depth : 16 bits
Compression mode : Lossy
Stream size : 458 MiB (12%)
Title : Italian Ac3 5.1 chnls 640 kbps
Language : Italian
Default : No
Forced : No

Audio #3
ID : 4
Format : AC-3
Format/Info : Audio Coding 3
Mode extension : CM (complete main)
Codec ID : A_AC3
Duration : 1h 39mn
Bit rate mode : Constant
Bit rate : 320 Kbps
Channel(s) : 6 channels
Channel positions : Front: L C R, Side: L R, LFE
Sampling rate : 48.0 KHz
Bit depth : 16 bits
Compression mode : Lossy
Stream size : 229 MiB (6%)
Title : French Ac3 5.1 chnls 320 kbps
Language : French
Default : No
Forced : No

Audio #4
ID : 5
Format : AC-3
Format/Info : Audio Coding 3
Mode extension : CM (complete main)
Codec ID : A_AC3
Duration : 1h 39mn
Bit rate mode : Constant
Bit rate : 320 Kbps
Channel(s) : 6 channels
Channel positions : Front: L C R, Side: L R, LFE
Sampling rate : 48.0 KHz
Bit depth : 16 bits
Compression mode : Lossy
Stream size : 229 MiB (6%)
Title : German Ac3 5.1 chnls 320 kbps
Language : German
Default : No
Forced : No

Audio #5
ID : 6
Format : AC-3
Format/Info : Audio Coding 3
Mode extension : CM (complete main)
Codec ID : A_AC3
Duration : 1h 39mn
Bit rate mode : Constant
Bit rate : 320 Kbps
Channel(s) : 6 channels
Channel positions : Front: L C R, Side: L R, LFE
Sampling rate : 48.0 KHz
Bit depth : 16 bits
Compression mode : Lossy
Stream size : 229 MiB (6%)
Title : Spanish Ac3 5.1 chnls 320 kbps
Language : Spanish
Default : No
Forced : No

Text #1
ID : 7
Format : VobSub
Muxing mode : zlib
Codec ID : S_VOBSUB
Codec ID/Info : The same subtitle format used on DVDs
Title : english
Language : English
Default : Yes
Forced : No

Text #2
ID : 8
Format : VobSub
Muxing mode : zlib
Codec ID : S_VOBSUB
Codec ID/Info : The same subtitle format used on DVDs
Title : italian
Language : Italian
Default : No
Forced : No

Text #3
ID : 9
Format : VobSub
Muxing mode : zlib
Codec ID : S_VOBSUB
Codec ID/Info : The same subtitle format used on DVDs
Title : french
Language : French
Default : No
Forced : No

Text #4
ID : 10
Format : VobSub
Muxing mode : zlib
Codec ID : S_VOBSUB
Codec ID/Info : The same subtitle format used on DVDs
Title : german
Language : German
Default : No
Forced : No

Text #5
ID : 11
Format : VobSub
Muxing mode : zlib
Codec ID : S_VOBSUB
Codec ID/Info : The same subtitle format used on DVDs
Title : spanish
Language : Spanish
Default : No
Forced : No

Text #6
ID : 12
Format : VobSub
Muxing mode : zlib
Codec ID : S_VOBSUB
Codec ID/Info : The same subtitle format used on DVDs
Title : danish
Language : Danish
Default : No
Forced : No

Text #7
ID : 13
Format : VobSub
Muxing mode : zlib
Codec ID : S_VOBSUB
Codec ID/Info : The same subtitle format used on DVDs
Title : dutch
Language : Dutch
Default : No
Forced : No

Text #8
ID : 14
Format : VobSub
Muxing mode : zlib
Codec ID : S_VOBSUB
Codec ID/Info : The same subtitle format used on DVDs
Title : finnish
Language : Finnish
Default : No
Forced : No

Text #9
ID : 15
Format : VobSub
Muxing mode : zlib
Codec ID : S_VOBSUB
Codec ID/Info : The same subtitle format used on DVDs
Title : norwegian
Language : Norwegian
Default : No
Forced : No

Text #10
ID : 16
Format : VobSub
Muxing mode : zlib
Codec ID : S_VOBSUB
Codec ID/Info : The same subtitle format used on DVDs
Title : portuguese
Language : Portuguese
Default : No
Forced : No

Text #11
ID : 17
Format : VobSub
Muxing mode : zlib
Codec ID : S_VOBSUB
Codec ID/Info : The same subtitle format used on DVDs
Title : swedish
Language : Swedish
Default : No
Forced : No

Text #12
ID : 18
Format : VobSub
Muxing mode : zlib
Codec ID : S_VOBSUB
Codec ID/Info : The same subtitle format used on DVDs
Title : italian forced
Language : Italian
Default : No
Forced : No

Text #13
ID : 19
Format : VobSub
Muxing mode : zlib
Codec ID : S_VOBSUB
Codec ID/Info : The same subtitle format used on DVDs
Title : french forced
Language : French
Default : No
Forced : No

Text #14
ID : 20
Format : VobSub
Muxing mode : zlib
Codec ID : S_VOBSUB
Codec ID/Info : The same subtitle format used on DVDs
Title : german forced
Language : German
Default : No
Forced : No

Text #15
ID : 21
Format : VobSub
Muxing mode : zlib
Codec ID : S_VOBSUB
Codec ID/Info : The same subtitle format used on DVDs
Title : spanish forced
Language : Spanish
Default : No
Forced : No

Text #16
ID : 22
Format : VobSub
Muxing mode : zlib
Codec ID : S_VOBSUB
Codec ID/Info : The same subtitle format used on DVDs
Title : italian - non udenti
Language : Italian
Default : No
Forced : No

Menu
00:00:00.000 : en:Christmas Eve
00:05:07.474 : en:All Aboard
00:09:46.920 : en:Another Passenger
00:15:16.415 : en:Hot Chocolate
00:18:19.765 : en:Ticket on the Loose
00:23:08.220 : en:Hobo on the Roof
00:28:07.519 : en:Look Who's Driving
00:33:43.688 : en:Caribou Conversation
00:35:25.290 : en:Hitting the Ice
00:41:37.328 : en:Forsaken Toys
00:44:45.016 : en:When Christmas Comes to Town
00:47:06.157 : en:The Polar Express
00:49:18.622 : en:Where's The Brake?
00:53:25.869 : en:Steven Gets a Break
00:57:18.435 : en:Billy's Present
01:01:08.999 : en:Elf Action
01:05:55.785 : en:Readying for Santa
01:09:55.191 : en:I Believe
01:12:56.205 : en:First Gift of Christmas
01:16:28.250 : en:Dash Away All
01:19:37.940 : en:Tickets Fully Punched
01:21:51.406 : en:What Matters
01:27:10.058 : en:For Whom the Bell Rings
01:31:21.142 : en:End Credits
[/code]



Capturas:

ImagenImagen
ImagenImagen
ImagenImagen
ImagenImagen
ImagenImagen


Enlace: (Ripeo de ShivaShanti encontrado en emule, muchas gracias)

eD2K link 2004 The Polar Express (Robert Zemeckis, 2004) BDRip 720p Multiaudio (ENG-ITA-FRE... ShivaShanti.mkv [3.60 Gb] 

Avatar de Usuario
yogiyamada
 
Mensajes: 594
Registrado: 02 Oct 2012, 20:44
Agradecido : 2 veces
Agradecimiento recibido: 89 veces

Re: The Polar Express (Robert Zemeckis, 2004) BDRip 720p Multiaudio Multisubs

Mensaje por yogiyamada » 26 Dic 2017, 14:53

Gracias Dcine. Interesante propuesta de Zemeckis.
Aportemos todos a que el Cine hable al alma al compartirlo libremente.

jail
 
Mensajes: 4549
Registrado: 18 Oct 2012, 15:34
Agradecido : 5053 veces
Agradecimiento recibido: 1068 veces

Re: The Polar Express (Robert Zemeckis, 2004) BDRip 720p Multiaudio Multisubs

Mensaje por jail » 26 Dic 2017, 18:39

Gracias, DCINE y ShivaShanti.

Avatar de Usuario
yojimbo
 
Mensajes: 7148
Registrado: 18 Oct 2012, 14:25
Agradecido : 6413 veces
Agradecimiento recibido: 1282 veces

Re: The Polar Express (Robert Zemeckis, 2004) BDRip 720p Multiaudio Multisubs

Mensaje por yojimbo » 28 Dic 2017, 14:04

Muchas gracias, DCINE y ShivaShanti.

Responder

Volver a “Largos Animación”