Early to Bed (Jack King, 1941) HQ 720p Dual

Puntuación
Sin
puntuar

Problemas de Sueño

Moderador: yogiyamada

Reglas del Foro
Norma de los tres años.
Responder
Avatar de Usuario
FrOnkY
 
Mensajes: 917
Registrado: 16 Oct 2012, 15:02
Agradecimiento recibido: 1335 veces

Estados Unidos Early to Bed (Jack King, 1941) HQ 720p Dual

Mensaje por FrOnkY » 05 May 2015, 15:40

Imagen

IMDb

Imagen
Spoiler:
Video
ID : 1
Format : AVC
Format/Info : Advanced Video Codec
Format profile : High@L4.1
Format settings, CABAC : Yes
Format settings, ReFrames : 11 frames
Codec ID : V_MPEG4/ISO/AVC
Duration : 7mn 45s
Bit rate : 4 321 Kbps
Width : 986 pixels
Height : 720 pixels
Display aspect ratio : 4:3
Frame rate mode : Constant
Frame rate : 23.976 fps
Color space : YUV
Chroma subsampling : 4:2:0
Bit depth : 8 bits
Scan type : Progressive
Bits/(Pixel*Frame) : 0.254
Stream size : 235 MiB (90%)
Writing library : x264 core 142 r2491 24e4fed
Language : English
Default : Yes
Forced : No

Audio #1
ID : 2
Format : AC-3
Format/Info : Audio Coding 3
Mode extension : CM (complete main)
Format settings, Endianness : Big
Codec ID : A_AC3
Duration : 7mn 45s
Bit rate mode : Constant
Bit rate : 192 Kbps
Channel(s) : 2 channels
Channel positions : Front: L R
Sampling rate : 48.0 KHz
Bit depth : 16 bits
Stream size : 10.7 MiB (4%)
Language : English
Default : Yes
Forced : No

Audio #2
ID : 3
Format : AC-3
Format/Info : Audio Coding 3
Mode extension : CM (complete main)
Format settings, Endianness : Big
Codec ID : A_AC3
Duration : 7mn 45s
Bit rate mode : Constant
Bit rate : 192 Kbps
Channel(s) : 2 channels
Channel positions : Front: L R
Sampling rate : 48.0 KHz
Bit depth : 16 bits
Stream size : 10.7 MiB (4%)
Language : Spanish
Default : No
Forced : No
Imagen
Imagen

jail
 
Mensajes: 6265
Registrado: 18 Oct 2012, 15:34
Agradecido : 6857 veces
Agradecimiento recibido: 1977 veces

Re: Early to Bed (Jack King, 1941) HQ 720p Dual

Mensaje por jail » 05 May 2015, 16:55

¿Un Vamos a la cama de Walt? Estupendo.
Gracias, Fronky.

Avatar de Usuario
gatatitania
 
Mensajes: 4651
Registrado: 16 Oct 2012, 18:27
Ubicación: Gatatitania es un gato hambriento, superviviente del planeta gatatitania...
Agradecido : 2424 veces
Agradecimiento recibido: 1400 veces

Re: Early to Bed (Jack King, 1941) HQ 720p Dual

Mensaje por gatatitania » 05 May 2015, 20:43

Nunca me he ido a la cama con un pato. Pero todo es cuestión de probar ¡Gracias, Fronky! :aplauso: :aplauso: :aplauso:

basiccaos
 
Mensajes: 23
Registrado: 16 Oct 2012, 23:51
Agradecido : 2 veces
Agradecimiento recibido: 2 veces

Re: Early to Bed (Jack King, 1941) HQ 720p Dual

Mensaje por basiccaos » 06 May 2015, 07:39

Imagen

Avatar de Usuario
FrOnkY
 
Mensajes: 917
Registrado: 16 Oct 2012, 15:02
Agradecimiento recibido: 1335 veces

Re: Early to Bed (Jack King, 1941) HQ 720p Dual

Mensaje por FrOnkY » 06 May 2015, 13:29

HQuá?

siertamente se ve muchogato pero pocopato
Imagen
Imagen

Avatar de Usuario
yojimbo
 
Mensajes: 9295
Registrado: 18 Oct 2012, 14:25
Agradecido : 9313 veces
Agradecimiento recibido: 2358 veces

Re: Early to Bed (Jack King, 1941) HQ 720p Dual

Mensaje por yojimbo » 06 May 2015, 14:55

Muchas gracias, FrOnkY.

Avatar de Usuario
jomime
 
Mensajes: 152
Registrado: 16 Oct 2012, 15:41
Agradecido : 14 veces
Agradecimiento recibido: 280 veces

Re: Early to Bed (Jack King, 1941) HQ 720p Dual

Mensaje por jomime » 09 May 2015, 09:29

Imagen

Responder

Volver a “Cortos Animación”