Duck! Rabbit, Duck! (Chuck Jones, 1953) BR 720p Dual SE

Puntuación
Sin
puntuar

¡Pato! ¡Conejo, Pato!

Moderador: yogiyamada

Reglas del Foro
Norma de los tres años.
Responder
Avatar de Usuario
FrOnkY
 
Mensajes: 917
Registrado: 16 Oct 2012, 15:02
Agradecimiento recibido: 1335 veces

Estados Unidos Duck! Rabbit, Duck! (Chuck Jones, 1953) BR 720p Dual SE

Mensaje por FrOnkY » 30 Sep 2014, 19:00

Imagen

IMDb

GUIÓN Michael Maltese
MÚSICA Carl W. Stalling
PRODUCCIÓN Warner Bros. Pictures
SINOPSIS Caza Superlativa

Código: Seleccionar todo

Duck!Rabbit,Duck!.(¡Pato!¡Conejo,Pato!).1953.BR.720p.x264.AC3.[FrOnkY].mkv

Format                                   : Matroska
Format version                           : Version 4 / Version 2
File size                                : 455 MiB
Duration                                 : 6mn 51s
Overall bit rate                         : 9 273 Kbps
Writing application                      : mkvmerge v6.9.1 ('Blue Panther') 32bit built on Apr 18 2014 18:15:44
Writing library                          : libebml v1.3.0 + libmatroska v1.4.1
Attachment                               : Yes

Video
ID                                       : 1
Format                                   : AVC
Format/Info                              : Advanced Video Codec
Format profile                           : High@L4.1
Format settings, CABAC                   : Yes
Format settings, ReFrames                : 11 frames
Codec ID                                 : V_MPEG4/ISO/AVC
Duration                                 : 6mn 51s
Bit rate                                 : 8 888 Kbps
Width                                    : 986 pixels
Height                                   : 720 pixels
Display aspect ratio                     : 4:3
Frame rate mode                          : Constant
Frame rate                               : 23.976 fps
Color space                              : YUV
Chroma subsampling                       : 4:2:0
Bit depth                                : 8 bits
Scan type                                : Progressive
Bits/(Pixel*Frame)                       : 0.522
Stream size                              : 427 MiB (94%)
Writing library                          : x264 core 142 r2389 956c8d8
Language                                 : English
Default                                  : Yes
Forced                                   : No

Audio #1
ID                                       : 2
Format                                   : AC-3
Format/Info                              : Audio Coding 3
Mode extension                           : CM (complete main)
Format settings, Endianness              : Big
Codec ID                                 : A_AC3
Duration                                 : 6mn 51s
Bit rate mode                            : Constant
Bit rate                                 : 192 Kbps
Channel(s)                               : 1 channel
Channel positions                        : Front: C
Sampling rate                            : 48.0 KHz
Bit depth                                : 16 bits
Stream size                              : 9.42 MiB (2%)
Language                                 : Spanish
Default                                  : Yes
Forced                                   : No

Audio #2
ID                                       : 3
Format                                   : AC-3
Format/Info                              : Audio Coding 3
Mode extension                           : CM (complete main)
Format settings, Endianness              : Big
Codec ID                                 : A_AC3
Duration                                 : 6mn 51s
Bit rate mode                            : Constant
Bit rate                                 : 192 Kbps
Channel(s)                               : 1 channel
Channel positions                        : Front: C
Sampling rate                            : 48.0 KHz
Bit depth                                : 16 bits
Stream size                              : 9.42 MiB (2%)
Language                                 : English
Default                                  : No
Forced                                   : No

Text #1
ID                                       : 4
Format                                   : UTF-8
Codec ID                                 : S_TEXT/UTF8
Codec ID/Info                            : UTF-8 Plain Text
Language                                 : Spanish
Default                                  : No
Forced                                   : No

Text #2
ID                                       : 5
Format                                   : UTF-8
Codec ID                                 : S_TEXT/UTF8
Codec ID/Info                            : UTF-8 Plain Text
Language                                 : English
Default                                  : No
Forced                                   : No

Text #3
ID                                       : 6
Format                                   : UTF-8
Codec ID                                 : S_TEXT/UTF8
Codec ID/Info                            : UTF-8 Plain Text
Language                                 : French
Default                                  : No
Forced                                   : No
HDClubassic

Imagen

eD2K link Duck!Rabbit,Duck!.(¡Pato!¡Conejo,Pato!).1953.BR.720p.x264.AC3.[FrOnkY].mkv [455.14 Mb] 
Imagen
Imagen

jail
 
Mensajes: 6265
Registrado: 18 Oct 2012, 15:34
Agradecido : 6857 veces
Agradecimiento recibido: 1977 veces

Re: Duck! Rabbit, Duck! (Chuck Jones, 1953) BR 720p Dual SE

Mensaje por jail » 30 Sep 2014, 19:52

Hmmmm... y ahora, pato.
Gracias, Fronky. Nos mimas.

cerb
 
Mensajes: 157
Registrado: 27 Ene 2013, 19:09
Agradecido : 480 veces
Agradecimiento recibido: 35 veces

Re: Duck! Rabbit, Duck! (Chuck Jones, 1953) BR 720p Dual SE

Mensaje por cerb » 01 Oct 2014, 00:41

No hay dos sin tres :amo:

Avatar de Usuario
yojimbo
 
Mensajes: 9295
Registrado: 18 Oct 2012, 14:25
Agradecido : 9313 veces
Agradecimiento recibido: 2358 veces

Re: Duck! Rabbit, Duck! (Chuck Jones, 1953) BR 720p Dual SE

Mensaje por yojimbo » 01 Oct 2014, 01:12

Muchas gracias, FrOnkY.

ciberyago
 
Mensajes: 2325
Registrado: 20 Oct 2012, 07:26
Agradecimiento recibido: 358 veces

Re: Duck! Rabbit, Duck! (Chuck Jones, 1953) BR 720p Dual SE

Mensaje por ciberyago » 01 Oct 2014, 06:09

Tenkius, Fronky!

Avatar de Usuario
FrOnkY
 
Mensajes: 917
Registrado: 16 Oct 2012, 15:02
Agradecimiento recibido: 1335 veces

Re: Duck! Rabbit, Duck! (Chuck Jones, 1953) BR 720p Dual SE

Mensaje por FrOnkY » 01 Oct 2014, 16:27

Completados los 72 Kilates de la Historia Cartoon: la "Trilogía de la Caza".

Los otros 2:

Rabbit Fire --> http://cineforum-clasico.org/forum/view ... =79&t=8555
Rabbit Seasoning --> http://cineforum-clasico.org/forum/view ... =79&t=8564

Ahp... y con el audy zpanish de siempre (nunca utilizado en formato digital algunop)


ñññeeeee
Imagen
Imagen

asung
 
Mensajes: 582
Registrado: 16 Oct 2012, 21:57
Agradecido : 220 veces
Agradecimiento recibido: 74 veces

Re: Duck! Rabbit, Duck! (Chuck Jones, 1953) BR 720p Dual SE

Mensaje por asung » 01 Oct 2014, 22:04

Gracias FrOnkY, me la llevo al Galeón

Responder

Volver a “Cortos Animación”