The Wrong Trousers (Nick Park, 1993) BDRip 1080p VOSE

Puntuación
7,5/10
2 votos

Wallace & Gromit: Los pantalones equivocados

Moderador: yogiyamada

Reglas del Foro
Norma de los tres años.
Responder
Avatar de Usuario
yogiyamada
 
Mensajes: 964
Registrado: 02 Oct 2012, 20:44
Agradecido : 199 veces
Agradecimiento recibido: 389 veces

Reino Unido The Wrong Trousers (Nick Park, 1993) BDRip 1080p VOSE

Mensaje por yogiyamada » 28 Jun 2020, 22:19

Wallace & Gromit: Los pantalones equivocados

Imagen
Imagen


SINOPSIS
En esta nueva aventura, Wallace le regala unos modernos pantalones a Gromit que le acabarán saliendo más caros de lo que esperaba. Por ello, Wallace alquila una habitación a un aparentemente inocente pingüino. (FILMAFFINITY)

FICHA ARTÍSTICA

Año
1993
Duración
30 min.
País
UK
Dirección
Nick Park
Guion
Nick Park
Música
Julian Nott
Fotografía
Animation, Nick Park
Género: Fantasía, comedia.
Productora
Aardman Animations / NFTS

Reparto (voces)
Peter Sallis (Wallace) y Peter Hawkins (Gromit)


COMENTARIO PERSONAL

Este es el segundo corto de la saga Wallace and Gromit Wallace, un inventor, soltero medio lunático, que ha vivido toda su vida en una localidad cercana a Lancashire, al norte de Inglaterra. Un personaje pintoresco, norteño que vive en una casa de ladrillos rojos en la calle West Wallaby, donde hay un sotano-laboratorio que sirve como espacio de creación para sus invenciones más insólitas. Fanático del té como buen inglés gentil hombre, crea toda clase de artefactos para ayudarse en la tareas domésticas. Por otra parte está Gromit, quien sufre en silencio las locas invenciones de Wallace, es un fiel perro, inteligente, ducho, termina por salvar siempre a su amo que suele estar despistado. Esta pareja dejó su impronta característica a través del humor refinado con un encanto indescriptible que cautivó a toda una generación. A Grand Day Out (1989) fue la primera aparición de estos pintorescos personajes, pero el éxito a gran escala llegaría con The Wrong Trousers ( 1993) la que nos convoca en esta ocasión y A Close Shave (1995), dos obras maestras de la animación llenas de humor, personajes irresistiblemente cómicos y notables secuencias de acción.
En 1990, A Grand Day Out fue nominada a un Óscar al mejor corto de animación, compitiendo directamente con otra creación de Nick Park, Creature Comforts, que se llevó el premio ese año. En 1994, el segundo corto protagonizado por Wallace y Gromit, The Wrong Trousers, recibió el Óscar al mejor corto de animación, y dos años después, con A Close Shave , Nick Park recogió su tercer Óscar. Los tres cortos protagonizados por la pareja fueron también premiados en Gran Bretaña con varios BAFTA.
Nick Park creció visionado producciones en animación stop-motion. A principios de los ochenta Nick Park asistió a un curso de animación en la Escuela Nacional de cine y Televisión de Beaconsfield. Allí , como parte de su proyecto de titulación, creó al calvo inventor Wallace y a su inteligente perro Gromit. Sin embargo, el filme no llegó a completarse. Tras graduarse, Park pasó a formar parte de la plantilla de Aardman Animation y dedicó varios años a trabajar en Morph, el conocido personaje de plastilina creado por Peter Lord y David Sproxton. Finalmente, Lord y Sproxton le dieron la oportunidad de dedicarse a su proyecto y tras diez años, The Wrong Trousers vio por fin la luz. Traigo este rip propio para vuestra colección, el segundo de varios más que vendrán. Los subt esta vez solo los dejé en la mula, pues no permitió Subdivx subirlos a su sitio.


DATOS TÉCNICOS

Código: Seleccionar todo

Format                      : MPEG-4
Format profile              : Base Media
Codec ID                    : isom (isom)
File size                   : 716 MiB
Duration                    : 30 min 19 s
Overall bit rate            : 3 302 kb/s
Encoded date                : UTC 2020-02-06 02:23:31
Tagged date                 : UTC 2020-02-06 02:23:31

Video
ID                          : 1
Format                      : AVC
Format/Info                 : Advanced Video Codec
Format profile              : High@L4.1
Format settings             : CABAC / 4 Ref Frames
Format settings, CABAC      : Yes
Format settings, ReFrames   : 4 frames
Codec ID                    : avc1
Codec ID/Info               : Advanced Video Coding
Duration                    : 30 min 19 s
Bit rate                    : 3 235 kb/s
Maximum bit rate            : 22.5 Mb/s
Width                       : 1 436 pixels
Height                      : 1 080 pixels
Display aspect ratio        : 4:3
Frame rate mode             : Constant
Frame rate                  : 24.000 FPS
Color space                 : YUV
Chroma subsampling          : 4:2:0
Bit depth                   : 8 bits
Scan type                   : Progressive
Bits/(Pixel*Frame)          : 0.087
Stream size                 : 688 MiB (96%)
Writing library             : x264 core 155 r2901 7d0ff22
Encoding settings           : cabac=1 / ref=4 / deblock=1:0:0 / analyse=0x3:0x133 / me=hex / subme=7 / psy=1 / psy_rd=0.40:0.00 / mixed_ref=1 / me_range=16 / chroma_me=1 / trellis=2 / 8x8dct=1 / cqm=0 / deadzone=21,11 / fast_pskip=0 / chroma_qp_offset=-2 / threads=4 / lookahead_threads=1 / sliced_threads=0 / nr=0 / decimate=1 / interlaced=0 / bluray_compat=0 / constrained_intra=0 / bframes=4 / b_pyramid=2 / b_adapt=2 / b_bias=0 / direct=1 / weightb=1 / open_gop=0 / weightp=2 / keyint=240 / keyint_min=24 / scenecut=40 / intra_refresh=0 / rc_lookahead=60 / rc=abr / mbtree=1 / bitrate=3235 / ratetol=1.0 / qcomp=0.60 / qpmin=0 / qpmax=69 / qpstep=4 / ip_ratio=1.40 / aq=1:0.60
Encoded date                : UTC 2020-02-06 01:28:34
Tagged date                 : UTC 2020-02-06 02:23:35

Audio
ID                          : 2
Format                      : MPEG Audio
Format version              : Version 1
Format profile              : Layer 3
Format settings             : Joint stereo / MS Stereo
Codec ID                    : .mp3
Duration                    : 30 min 19 s
Bit rate mode               : Constant
Bit rate                    : 128 kb/s
Maximum bit rate            : 134 kb/s
Channel(s)                  : 2 channels
Sampling rate               : 44.1 kHz
Frame rate                  : 38.281 FPS (1152 SPF)
Compression mode            : Lossy
Stream size                 : 27.8 MiB (4%)
Writing library             : LAME3.99
Language                    : English
Encoded date                : UTC 2020-02-06 02:23:34
Tagged date                 : UTC 2020-02-06 02:23:35

 

CAPTURAS

Imagen
Imagen
Imagen
Imagen
eD2K link The Wrong Trousers.mp4 [716.29 Mb] 
Subtítulos en español sincronizados
eD2K link The Wrong Trousers.srt [8.1 Kb] 
Aportemos todos a que el Cine hable al alma al compartirlo libremente.

Avatar de Usuario
yojimbo
 
Mensajes: 10429
Registrado: 18 Oct 2012, 14:25
Agradecido : 9599 veces
Agradecimiento recibido: 2666 veces

Re: The Wrong Trousers (Nick Park, 1993) BDRip 1080p VOSE

Mensaje por yojimbo » 29 Jun 2020, 15:22

Muchas gracias, yogiyamada.

Avatar de Usuario
yogiyamada
 
Mensajes: 964
Registrado: 02 Oct 2012, 20:44
Agradecido : 199 veces
Agradecimiento recibido: 389 veces

Re: The Wrong Trousers (Nick Park, 1993) BDRip 1080p VOSE

Mensaje por yogiyamada » 29 Jun 2020, 16:26

yojimbo escribió:
29 Jun 2020, 15:22
Muchas gracias, yogiyamada.
De nada, que lo disfrutes.
Aportemos todos a que el Cine hable al alma al compartirlo libremente.

ciberyago
 
Mensajes: 2471
Registrado: 20 Oct 2012, 07:26
Agradecido : 1 vez
Agradecimiento recibido: 395 veces

Re: The Wrong Trousers (Nick Park, 1993) BDRip 1080p VOSE

Mensaje por ciberyago » 01 Jul 2020, 06:53

Muchas gracias

Avatar de Usuario
yogiyamada
 
Mensajes: 964
Registrado: 02 Oct 2012, 20:44
Agradecido : 199 veces
Agradecimiento recibido: 389 veces

Re: The Wrong Trousers (Nick Park, 1993) BDRip 1080p VOSE

Mensaje por yogiyamada » 01 Jul 2020, 19:13

ciberyago escribió:
01 Jul 2020, 06:53
Muchas gracias
De nada, a disfrutar a estos inolvidables personajes.
Aportemos todos a que el Cine hable al alma al compartirlo libremente.

Responder

Volver a “Cortos Animación”