The FLINTSTONES & The Engagement Ring (Hanna-Barbera, 1960) BRRip 720p SE

Puntuación
Sin
puntuar

Los PICAPIEDRA & El Anillo de Compromiso

Moderador: yogiyamada

Reglas del Foro
Norma de los tres años.
Responder
Avatar de Usuario
FrOnkY
 
Mensajes: 917
Registrado: 16 Oct 2012, 15:02
Agradecimiento recibido: 1333 veces

Estados Unidos The FLINTSTONES & The Engagement Ring (Hanna-Barbera, 1960) BRRip 720p SE

Mensaje por FrOnkY » 16 Ago 2015, 19:27

Imagen

imdB

Imagen
Imagen
Spoiler:
Video
ID : 1
Format : AVC
Format/Info : Advanced Video Codec
Format profile : High@L4.1
Format settings, CABAC : Yes
Format settings, ReFrames : 12 frames
Codec ID : V_MPEG4/ISO/AVC
Duration : 25mn 57s
Bit rate : 5 005 Kbps
Width : 958 pixels
Height : 720 pixels
Display aspect ratio : 4:3
Frame rate mode : Constant
Frame rate : 23.976 fps
Color space : YUV
Chroma subsampling : 4:2:0
Bit depth : 8 bits
Scan type : Progressive
Bits/(Pixel*Frame) : 0.303
Stream size : 910 MiB (91%)
Writing library : x264 core 146 r2538 121396c
Language : English
Default : Yes
Forced : No

Audio #1
ID : 2
Format : AC-3
Format/Info : Audio Coding 3
Mode extension : CM (complete main)
Format settings, Endianness : Big
Codec ID : A_AC3
Duration : 25mn 57s
Bit rate mode : Constant
Bit rate : 192 Kbps
Channel(s) : 1 channel
Channel positions : Front: C
Sampling rate : 48.0 KHz
Bit depth : 16 bits
Stream size : 35.6 MiB (4%)
Language : Spanish
Default : Yes
Forced : No

Audio #2
ID : 3
Format : AC-3
Format/Info : Audio Coding 3
Mode extension : CM (complete main)
Format settings, Endianness : Big
Codec ID : A_AC3
Duration : 25mn 57s
Bit rate mode : Constant
Bit rate : 192 Kbps
Channel(s) : 2 channels
Channel positions : Front: L R
Sampling rate : 48.0 KHz
Bit depth : 16 bits
Stream size : 35.6 MiB (4%)
Language : English
Default : No
Forced : No

Text #1
ID : 4
Format : UTF-8
Codec ID : S_TEXT/UTF8
Codec ID/Info : UTF-8 Plain Text
Language : Spanish
Default : No
Forced : No

Text #2
ID : 5
Format : UTF-8
Codec ID : S_TEXT/UTF8
Codec ID/Info : UTF-8 Plain Text
Language : English
Default : No
Forced : No

Text #3
ID : 6
Format : UTF-8
Codec ID : S_TEXT/UTF8
Codec ID/Info : UTF-8 Plain Text
Language : French
Default : No
Forced : No

Text #4
ID : 7
Format : UTF-8
Codec ID : S_TEXT/UTF8
Codec ID/Info : UTF-8 Plain Text
Language : Portuguese
Default : No
Forced : No

Menu
00:00:00.000 : en:Chapter 01
00:00:57.888 : en:Chapter 02
00:05:09.222 : en:Chapter 03
00:11:56.444 : en:Chapter 04
00:25:00.999 : en:Chapter 05
Imagen
Imagen

loga
 
Mensajes: 35
Registrado: 17 Oct 2012, 02:20
Agradecido : 49 veces
Agradecimiento recibido: 4 veces

Re: The FLINTSTONES & The Engagement Ring (Hanna-Barbera, 1960) BRRip 720p SE

Mensaje por loga » 16 Ago 2015, 20:53

Ya cállate enano jajaja

Avatar de Usuario
FrOnkY
 
Mensajes: 917
Registrado: 16 Oct 2012, 15:02
Agradecimiento recibido: 1333 veces

Re: The FLINTSTONES & The Engagement Ring (Hanna-Barbera, 1960) BR 720p YabbaDabbaDooal SEtc

Mensaje por FrOnkY » 16 Ago 2015, 20:59

kushy-kushy
Imagen
Imagen

jail
 
Mensajes: 6272
Registrado: 18 Oct 2012, 15:34
Agradecido : 6862 veces
Agradecimiento recibido: 1947 veces

Re: The FLINTSTONES & The Engagement Ring (Hanna-Barbera, 1960) BRRip 720p SE

Mensaje por jail » 16 Ago 2015, 23:25

Gracias, Dino. En materia de dibujos seriados, siempre aperitivos. Racanismo evidente.
Por no hablar de las carencias en compromisos Fordianos. No sé si prometió, pero...

Avatar de Usuario
FrOnkY
 
Mensajes: 917
Registrado: 16 Oct 2012, 15:02
Agradecimiento recibido: 1333 veces

Re: The FLINTSTONES & The Engagement Ring (Hanna-Barbera, 1960) BR 720p YabbaDabbaDooal SEtc

Mensaje por FrOnkY » 16 Ago 2015, 23:41

._.
Imagen
Imagen

jail
 
Mensajes: 6272
Registrado: 18 Oct 2012, 15:34
Agradecido : 6862 veces
Agradecimiento recibido: 1947 veces

Re: The FLINTSTONES & The Engagement Ring (Hanna-Barbera, 1960) BR 720p YabbaDabbaDooal SEtc

Mensaje por jail » 17 Ago 2015, 00:58

FrOnkY escribió:._.
¿Es morsez?
Me encantaz cuando te ponez mizticop y cripticop. ¡Traduccioooón!, como dijo El violinista en el tejado.

Avatar de Usuario
Bunker
 
Mensajes: 5218
Registrado: 03 Oct 2012, 00:05
Agradecido : 3 veces
Agradecimiento recibido: 1215 veces

Re: The FLINTSTONES & The Engagement Ring (Hanna-Barbera, 1960) BRRip 720p SE

Mensaje por Bunker » 17 Ago 2015, 20:07

eD2K link The.FLINTSTONES.&.The.Engagement.Ring.(Los.PICAPIEDRA.&.El.Anillo.De.Compromiso)....AC3.[FrOnkY].mkv [1001.68 Mb] 

Spanish Jhonny
 
Mensajes: 132
Registrado: 17 Oct 2012, 01:50
Agradecido : 429 veces
Agradecimiento recibido: 39 veces

Re: The FLINTSTONES & The Engagement Ring (Hanna-Barbera, 1960) BRRip 720p SE

Mensaje por Spanish Jhonny » 19 Ago 2015, 16:58

Yabadabadú

asung
 
Mensajes: 582
Registrado: 16 Oct 2012, 21:57
Agradecido : 220 veces
Agradecimiento recibido: 74 veces

Re: The FLINTSTONES & The Engagement Ring (Hanna-Barbera, 1960) BRRip 720p SE

Mensaje por asung » 20 Ago 2015, 02:31

Gracias FrOnkY, me la llevo al Galeón

Avatar de Usuario
javisambo
 
Mensajes: 50
Registrado: 17 Oct 2012, 00:35
Agradecimiento recibido: 1 vez

Re: The FLINTSTONES & The Engagement Ring (Hanna-Barbera, 1960) BRRip 720p SE

Mensaje por javisambo » 20 Ago 2015, 16:35

Gracias Vilma. Completada y compartiendo ;)
Última edición por javisambo el 29 Ago 2015, 21:03, editado 1 vez en total.
Macklin, you son of a bitch...

Responder

Volver a “Cortos Animación”