Jazz (Ken Burns, 2001) DVDRip VOSE

Puntuación
Sin
puntuar

Moderador: loperena

Reglas del Foro
Norma de los tres años.
Responder
Avatar de Usuario
Germán
 
Mensajes: 30
Registrado: 16 Oct 2012, 18:33
Agradecimiento recibido: 25 veces

Reino Unido Jazz (Ken Burns, 2001) DVDRip VOSE

Mensaje por Germán » 21 Feb 2015, 00:28

Imagen

IMDB

Una monumental serie documental de 12 episodios que abarca ocho décadas de arte sonoro afroamericano que se extiende por el blues y el primitivo folclore negro, el ragtime, el dixieland, el swing, las grandes orquestas, el bebop, hard bop, cool jazz, free jazz y el jazz modal, hasta los comienzos del jazz rock. Todo corriendo en paralelo con los principales sucesos del siglo XX.

Capítulos

Gumbo Inicios - 1917
El Regalo 1917-1924
Nuestro Lenguaje 1924-1929
La Verdadera Bienvenida 1929-1934
Swing. Puro Placer 1935-1937
Swing. La Velocidad de la Celebración 1937-1939
El Swing con el cambio 1940-1942
Dedicado al Caos 1943-1945
Riesgo 1945-1949
Irresistible 1949-1955
La Aventura 1956-1960
Una Obra Maestra a Medianoche 1960- Actualidad

Imagen Imagen Imagen Imagen

Especificaciones técnicas
Spoiler:
Format : AVI
Format/Info : Audio Video Interleave
File size : 506 MiB
Duration : 58mn 56s
Overall bit rate : 1 201 Kbps
Writing application : VirtualDubMod 1.5.10.1 (build 2366/release)
Writing library : VirtualDubMod build 2366/release

Video
ID : 0
Format : MPEG-4 Visual
Format settings, BVOP : 1
Format settings, QPel : No
Format settings, GMC : No warppoints
Format settings, Matrix : Default (H.263)
Muxing mode : Packed bitstream
Codec ID : DX50
Codec ID/Hint : DivX 5
Duration : 58mn 56s
Bit rate : 803 Kbps
Width : 384 pixels
Height : 288 pixels
Display aspect ratio : 4:3
Frame rate : 25.000 fps
Color space : YUV
Chroma subsampling : 4:2:0
Bit depth : 8 bits
Scan type : Progressive
Compression mode : Lossy
Bits/(Pixel*Frame) : 0.290
Stream size : 338 MiB (67%)
Writing library : DivX 5.1.1 (Maupiti) (UTC 2003-11-19)

Audio #1
ID : 1
Format : AC-3
Format/Info : Audio Coding 3
Mode extension : CM (complete main)
Format settings, Endianness : Big
Codec ID : 2000
Duration : 58mn 56s
Bit rate mode : Constant
Bit rate : 192 Kbps
Channel(s) : 2 channels
Channel positions : Front: L R
Sampling rate : 48.0 KHz
Bit depth : 16 bits
Compression mode : Lossy
Delay relative to video : 750ms
Stream size : 80.9 MiB (16%)
Alignment : Split accross interleaves
Interleave, duration : 40 ms (1.00 video frame)
Interleave, preload duration : 500 ms

Audio #2
ID : 2
Format : AC-3
Format/Info : Audio Coding 3
Mode extension : CM (complete main)
Format settings, Endianness : Big
Codec ID : 2000
Duration : 58mn 56s
Bit rate mode : Constant
Bit rate : 192 Kbps
Channel(s) : 2 channels
Channel positions : Front: L R
Sampling rate : 48.0 KHz
Bit depth : 16 bits
Compression mode : Lossy
Delay relative to video : 750ms
Stream size : 80.9 MiB (16%)
Alignment : Split accross interleaves
Interleave, duration : 40 ms (1.00 video frame)
Interleave, preload duration : 500 ms
Subtítulos en Subdivx: http://www.subdivx.com/X6XNDE4ODUwX-jaz ... -2001.html

Enlaces:
eD2K link Jazz01 Gumbo (K.Burns).avi [506.36 Mb] 

eD2K link Jazz01 Gumbo (Ken Burns).srt [54.0 Kb] 

eD2K link Jazz02 The Gift (K.Burns).avi [506.50 Mb] 

eD2K link Jazz02 The Gift (Ken Burns).srt [55.7 Kb] 

eD2K link Jazz03 Our Language (Ken Burns).avi [509.86 Mb] 

eD2K link Jazz03 Our Language (Ken Burns).srt [50.4 Kb] 

eD2K link Jazz04 The True Welcome (Ken Burns).avi [519.94 Mb] 

eD2K link Jazz04 The True Welcome (Ken Burns).srt [51.1 Kb] 

eD2K link Jazz05 Swing Pure Pleasure (Ken Burns).avi [506.53 Mb] 

eD2K link Jazz05 Swing Pure Pleasure (Ken Burns).srt [46.9 Kb] 

eD2K link Jazz06 Swing The Velocity Of Celebration (Ken Burns).avi [506.33 Mb] 

eD2K link Jazz06 Swing The Velocity Of Celebration (Ken Burns).srt [44.9 Kb] 

eD2K link Jazz07 Dedicated To Chaos (Ken Burns).avi [506.51 Mb] 

eD2K link Jazz07 Dedicated To Chaos (Ken Burns).srt [44.3 Kb] 

eD2K link Jazz08 Risk (Ken Burns).avi [506.26 Mb] 

eD2K link Jazz08 Risk (Ken Burns).srt [52.9 Kb] 

eD2K link Jazz08Extra Irresistible (Ken Burns).avi [506.45 Mb] 

eD2K link Jazz08Extra Irresistible (Ken Burns).srt [48.5 Kb] 

eD2K link Jazz09 The Adventure (Ken Burns).avi [506.47 Mb] 

eD2K link Jazz09 The Adventure (Ken Burns).srt [49.8 Kb] 

eD2K link Jazz10 A Masterpiece by Midnight (Ken Burns).avi [506.46 Mb] 

eD2K link Jazz10 A Masterpiece by Midnight (Ken Burns).srt [39.1 Kb] 


Bajado de Patio de Butacas - Subida original de PgM
Última edición por Germán el 21 Feb 2015, 01:14, editado 1 vez en total.

jail
 
Mensajes: 6265
Registrado: 18 Oct 2012, 15:34
Agradecido : 6857 veces
Agradecimiento recibido: 1977 veces

Re: Jazz (Ken Burns, 2001) DVDrip VOSE

Mensaje por jail » 21 Feb 2015, 01:03

Gracias, Germán. La tengo, pero renuevo, por si acaso. Es un documental excelente, de una calidad impresionante. Atesorar.
Emitida creo, hace años, por Canal+.

7 AGES OF ROCK (2007) es también una serie muy buena acerca del rock (subs o doblaje en catalán, no recuerdo ahora).
http://elblogdelbam.blogspot.com.es/201 ... ienes.html

SOUL DEEP (Historia de la música negra), desarrollo histórico de las diversas etapas de la música negra a través del
soul, funky, gospel, hip-hop, blues..
http://www.hiphopasturias.com/2013/02/1 ... -souldeep/
Me impresionó mucho, entre otras, una cantante que no conocía: Mary J. Blige. El documental, de 6 capítulos, no tiene desperdicio.

Avatar de Usuario
Bunker
 
Mensajes: 5200
Registrado: 03 Oct 2012, 00:05
Agradecido : 3 veces
Agradecimiento recibido: 1342 veces

Re: Jazz (Ken Burns, 2001) DVDRip VOSE

Mensaje por Bunker » 21 Feb 2015, 06:26

Muchas gracias, Germán, y bienvenido. :hi:

Avatar de Usuario
yogiyamada
 
Mensajes: 858
Registrado: 02 Oct 2012, 20:44
Agradecido : 108 veces
Agradecimiento recibido: 345 veces

Re: Jazz (Ken Burns, 2001) DVDRip VOSE

Mensaje por yogiyamada » 21 Feb 2015, 17:33

¡Te las mandaste German! Gran entrada a CFC. :platanito: :platanito:
Aportemos todos a que el Cine hable al alma al compartirlo libremente.

Avatar de Usuario
lluis600
 
Mensajes: 945
Registrado: 16 Oct 2012, 19:39
Agradecido : 1488 veces
Agradecimiento recibido: 17 veces

Re: Jazz (Ken Burns, 2001) DVDRip VOSE

Mensaje por lluis600 » 21 Feb 2015, 20:14

Gracias por la aportación, German :genial:

vincente
 
Mensajes: 221
Registrado: 23 Nov 2012, 01:30
Agradecimiento recibido: 11 veces

Re: Jazz (Ken Burns, 2001) DVDRip VOSE

Mensaje por vincente » 21 Feb 2015, 22:43

Formidable, menudo festin nos espera, gracias

waterloo812
 
Mensajes: 179
Registrado: 23 Nov 2012, 10:10
Agradecimiento recibido: 8 veces

Re: Jazz (Ken Burns, 2001) DVDRip VOSE

Mensaje por waterloo812 » 22 Feb 2015, 19:20

Un millón de gracias.

minina10
 
Mensajes: 10
Registrado: 16 Oct 2012, 22:14
Agradecido : 28 veces

Re: Jazz (Ken Burns, 2001) DVDRip VOSE

Mensaje por minina10 » 05 Mar 2015, 00:38

excelente la serie, muchas gracias
Están mal numerados los últimos capítulos, lo cual no es importante. porque cada uno dice su número. Falta el 7 y es a partir de ahí que hay que cambiar la numeración-
¿será mucho pedir que subas el que falta? es una pena no tenerla completa

Responder

Volver a “Series Documentales”