Das Erbe der Nibelungen (Guido Altendorf/Anke Wilkening, 2011) HDTV 720p VO

Puntuación
Sin
puntuar

El legado de los Nibelungos

Moderador: loperena

Reglas del Foro
Norma de los tres años.
Responder
Avatar de Usuario
Initiand
 
Mensajes: 536
Registrado: 21 Oct 2012, 19:59
Agradecido : 269 veces
Agradecimiento recibido: 1201 veces

Alemania Das Erbe der Nibelungen (Guido Altendorf/Anke Wilkening, 2011) HDTV 720p VO

Mensaje por Initiand » 05 Feb 2015, 23:07

Das Erbe der Nibelungen (2011 Histoire d'un film) HDTV 720p ger-fre
El legado de los Nibelungos
initiand escribió:Imagen
Das Erbe der Nibelungen
Les Nibelungen - Histoire d'un film
Origin: ZDF
Land: Deutschland
Jahr: 2011
Tonformat: Stereo
Bildformat: HD, 16/9
Arte+7: 03.02-10.02.2015
Regie: Guido Altendorf, Anke Wilkening
69 Min.
http://www.imdb.com/title/tt2057384/?ref_=fn_al_tt_1

Die Dokumentation beleuchtet die Produktions- und Wirkungsgeschichte des Monumentalfilms "Die Nibelungen" (1922-24), der als nationalistisches Filmepos in Verruf geriet und der zu seiner Zeit aufgrund seiner künstlerischen Qualität und technischen Innovationen große internationale Wertschätzung genoss.

Mit einer Fülle von Werkfotografien und Originaldokumenten stellen Filmemacher Guido Altendorf und Anke Wilkening die kreativen Visionen vor, mit denen das Team um Fritz Lang und Thea von Harbou an dem zweiteiligen Monumentalfilm "Die Nibelungen" gearbeitet hat. Bei diesem in den Jahren 1922 bis 1924 entstandenen Filmepos ging es um die Erschaffung einer eigenen, bildgewaltigen Welt, um herausragende künstlerische und technische Leistungen - wie den Bau eines 21 Meter langen Drachenmodells - und um den Beweis, dass der Film noch stärker als die Oper verzaubern kann, da er mit einzigartigen Trickaufnahmen arbeitet.

Zugleich verschließt sich der Dokumentarfilm nicht den Abgründen des Werks und seiner ideologischen Funktionalisierung während der Zeit des Nationalsozialismus. Eindeutig sind die Anleihen, die Albert Speer und Leni Riefenstahl in ihren Werken bei diesem Film genommen haben, der darüber in Verruf geraten ist, ein faschistoides Filmwerk zu sein.

Der Dokumentarfilm schlägt den großen Bogen von der Entstehungsgeschichte des Films über seine unterschiedliche Rezeption bis hin zur geglückten Restaurierung. Die Murnau-Stiftung hat in einer einmaligen Recherche-Aktion die über die ganze Welt verstreute filmische Überlieferung des Werks im Wiesbadener Archiv zusammengeführt und damit die wesentliche Grundlage für eine Neubewertung geschaffen. Überliefert sind verschiedene Exportkopien in unterschiedlichen Schnittfassungen, die dokumentieren, wie der Film im In- und Ausland rezipiert wurde. Die Restaurierung des Films und seine Präsentation mit der für ihn komponierten Orchestermusik von Gottfried Huppertz ist eine gemeinschaftliche Leistung vieler Institutionen und Personen. Jede von ihnen hat seine ganz individuellen Erfahrungen mit diesem Film, die sie in dem Dokumentarfilm schildern.
Un budget colossal, des techniques de trucage inédites, des jeux de lumière saisissants : la première superproduction de l'histoire du cinéma allemand fut Les Nibelungen, un chef-d'oeuvre de plus de quatre heures. Fritz Lang l'a réalisé en 1924, avant Metropolis. Avec son épouse Thea von Harbou, ils s’inspirent de la tétralogie de Wagner (L’anneau du Nibelung), mais puisent surtout dans les légendes germaniques et scandinaves pour raconter l'histoire de Siegfrid, de son épouse Kriemhild et du roi Gunther. Ce documentaire retrace la genèse et la fabrication d'une oeuvre splendide qui remporta un immense succès à sa sortie.
Imagen
Imagen
Imagen

Código: Seleccionar todo

Complete name                    : Das Erbe der Nibelungen (2011 Histoire d'un film)  HDTV 720p ger-fre.mkv
Format                           : Matroska
File size                        : 1.43 GiB
Duration                         : 1h 8mn
Overall bit rate                 : 2 978 Kbps
Encoded date                     : UTC 2015-02-05 20:50:51
Writing application              : mkvmerge v7.0.0 ('Where We Going') 32bit built on Jun  9 2014 15:08:34
Writing library                  : libebml v1.3.0 + libmatroska v1.4.1

Video
ID                               : 1
Format                           : AVC
Format/Info                      : Advanced Video Codec
Format profile                   : Main@L3.1
Format settings, CABAC           : Yes
Format settings, ReFrames        : 3 frames
Format settings, GOP             : M=4, N=33
Codec ID                         : V_MPEG4/ISO/AVC
Duration                         : 1h 8mn
Bit rate                         : 2 535 Kbps
Width                            : 1 280 pixels
Height                           : 720 pixels
Display aspect ratio             : 16:9
Frame rate                       : 50.000 fps
Original frame rate              : 25.000 fps
Standard                         : PAL
Color space                      : YUV
Chroma subsampling               : 4:2:0
Bit depth                        : 8 bits
Scan type                        : Progressive
Bits/(Pixel*Frame)               : 0.055
Stream size                      : 1.21 GiB (85%)
Language                         : German

Audio #1
ID                               : 2
Format                           : AC-3
Format/Info                      : Audio Coding 3
Mode extension                   : CM (complete main)
Codec ID                         : A_AC3
Duration                         : 1h 8mn
Bit rate mode                    : Constant
Bit rate                         : 192 Kbps
Channel(s)                       : 2 channels
Channel positions                : Front: L R
Sampling rate                    : 48.0 KHz
Bit depth                        : 16 bits
Compression mode                 : Lossy
Delay relative to video          : -80ms
Stream size                      : 94.1 MiB (6%)
Language                         : German

Audio #2
ID                               : 3
Format                           : AC-3
Format/Info                      : Audio Coding 3
Mode extension                   : CM (complete main)
Codec ID                         : A_AC3
Duration                         : 1h 8mn
Bit rate mode                    : Constant
Bit rate                         : 192 Kbps
Channel(s)                       : 2 channels
Channel positions                : Front: L R
Sampling rate                    : 48.0 KHz
Bit depth                        : 16 bits
Compression mode                 : Lossy
Delay relative to video          : -80ms
Stream size                      : 94.1 MiB (6%)
Language                         : French
eD2K link Das Erbe der Nibelungen (2011 Histoire d'un film) HDTV 720p ger-fre.mkv [1.43 Gb] 
Un recorte no habría sido apropiado para los diferentes tamaños de cada parte

Avatar de Usuario
toerless
 
Mensajes: 869
Registrado: 16 Oct 2012, 16:27
Agradecido : 115 veces
Agradecimiento recibido: 514 veces

Re: Das Erbe der Nibelungen (Guido Altendorf, Anke Wilkening 2011) HDTV 720p VO

Mensaje por toerless » 06 Feb 2015, 00:20

Schon lange nichts gehört! Sei herzlichst gegrüßt!

Avatar de Usuario
Sims
 
Mensajes: 285
Registrado: 26 Nov 2012, 22:47
Agradecido : 338 veces
Agradecimiento recibido: 153 veces

Re: Das Erbe der Nibelungen (Guido Altendorf, Anke Wilkening 2011) HDTV 720p VO

Mensaje por Sims » 06 Feb 2015, 01:11

Belleza!!! Un ojo (el que le queda) de Hagen Tronje por unos subtítulos!!!!


Danke!!!

Avatar de Usuario
Initiand
 
Mensajes: 536
Registrado: 21 Oct 2012, 19:59
Agradecido : 269 veces
Agradecimiento recibido: 1201 veces

Re: Das Erbe der Nibelungen (Guido Altendorf, Anke Wilkening 2011) HDTV 720p VO

Mensaje por Initiand » 06 Feb 2015, 01:30

toerless escribió:Schon lange nichts gehört! Sei herzlichst gegrüßt!
Hola Senor Törless, lange nichts gehört, stimmt schon, obwohl ich doch einige Filme hier reingestellt habe.

Wie geht es dir und deiner Frau? Ich hoffe gut.

Bei meiner Augengeschichte hat sich nichts verbessert, außer Spesen nichts gewesen. Nur auf meinem Konto ist nun Ebbe.

Gruß

Ini

Avatar de Usuario
Sieglinde
 
Mensajes: 276
Registrado: 13 Nov 2012, 19:22
Ubicación: Madrid
Agradecido : 66 veces
Agradecimiento recibido: 20 veces

Re: Das Erbe der Nibelungen (Guido Altendorf, Anke Wilkening 2011) HDTV 720p VO

Mensaje por Sieglinde » 06 Feb 2015, 01:55

Sims escribió:Belleza!!! Un ojo (el que le queda) de Hagen Tronje por unos subtítulos!!!!


Danke!!!
¡Qué maravilla! Y digo lo mismo ( aunque nunca sabré por qué le quitan un ojo al feroz Hagen en la película; en el Cantar conserva los dos ) y le dan un estilo tan a lo Wotan; de hecho es clavadito al barítono Rudolf Bockelmann en una foto en "Die Walküre" de 1938, en la que interpretaba al dios...
Lady Bracknell: ¿Fuma usted?
Jack: Pues bien, sí; debo confesar que fumo.
Lady Bracknell: Me alegra oírlo. Un hombre debe tener siempre una ocupación. Hay demasiados hombres ociosos en Londres

O. Wilde. "The importance of being earnest"

jail
 
Mensajes: 6264
Registrado: 18 Oct 2012, 15:34
Agradecido : 6856 veces
Agradecimiento recibido: 1977 veces

Re: Das Erbe der Nibelungen (Guido Altendorf, Anke Wilkening 2011) HDTV 720p VO

Mensaje por jail » 06 Feb 2015, 02:20

Vale, panda de teutones, gracias.

Avatar de Usuario
boettcher
 
Mensajes: 1573
Registrado: 17 Oct 2012, 12:01
Agradecido : 965 veces
Agradecimiento recibido: 256 veces

Re: Das Erbe der Nibelungen (Guido Altendorf, Anke Wilkening 2011) HDTV 720p VO

Mensaje por boettcher » 06 Feb 2015, 10:42

Qué envidia me dais los germanófilos... entre esto y aquel del Gabinete Kaligari... :)

Mil gracias por traerlo.

Responder

Volver a “Documentales”