Rock Hudson: Dark and Handsome Stranger (Davies/Schäfer, 2010) HDTVRip 720p VO

Puntuación
Sin
puntuar

Rock Hudson, el galán desconocido

Moderador: loperena

Reglas del Foro
Norma de los tres años.
Responder
Avatar de Usuario
Initiand
 
Mensajes: 536
Registrado: 21 Oct 2012, 19:59
Agradecido : 269 veces
Agradecimiento recibido: 1201 veces

Alemania Rock Hudson: Dark and Handsome Stranger (Davies/Schäfer, 2010) HDTVRip 720p VO

Mensaje por Initiand » 15 Jul 2014, 17:33

Rock Hudson - Schöner fremder Mann (Beau ténébreux) (2010) ArteRip x264 720p ger-fre
Imagen
Rock Hudson - Schöner fremder Mann
(Beau ténébreux)
Dokumentation
Origin: ARTE
Land: Deutschland
Jahr: 2010

imdb

« J’ai su tout jeune que je voulais être acteur, mais dans la petite ville du Middle West où je suis né, il ne fallait pas le dire : jouer la comédie, c’était bon pour les lavettes », affirmait Rock Hudson. Paradoxal pour un homme qui incarna la virilité tout en vivant en secret son homosexualité. Avec son mètre quatre-vingt-treize, sa carrure athlétique, ses cheveux couleur de jais, ses yeux brillants, ses pommettes saillantes et ses lèvres sensuelles, il fait se pâmer les femmes. Et son magnétisme fascine les plus grands réalisateurs, de Douglas Sirk à Antony Mann en passant par Hawks, Aldrich, Frankenheimer, Walsh, Brooks et Edwards. Il est un partenaire délicieux pour Doris Day, Gina Lollobridgida et Salome Jens notamment. Mais dans l’Amérique puritaine des années 1950 – et même encore plus tard – il doit cacher son attirance pour les hommes. Il ne fera son coming out que peu de temps avant sa mort, en 1985, et s’emploiera à faire parler du fléau du sida dont il est la première vedette à se déclarer atteint.

Código: Seleccionar todo

Complete name : Rock Hudson - Schöner fremder Mann (Beau ténébreux) (2010) ArteRip x264 720p ger-fre.mkv
Format : Matroska
File size : 1.94 GiB
Duration : 1h 35mn
Overall bit rate : 2 905 Kbps
Encoded date : UTC 2014-07-10 00:29:48
Writing application : mkvmerge v7.0.0 ('Where We Going') 32bit built on Jun 9 2014 15:08:34
Writing library : libebml v1.3.0 + libmatroska v1.4.1

Video
ID : 1
Format : AVC
Format/Info : Advanced Video Codec
Format profile : Main@L3.1
Format settings, CABAC : Yes
Format settings, ReFrames : 3 frames
Format settings, GOP : M=4, N=33
Codec ID : V_MPEG4/ISO/AVC
Duration : 1h 35mn
Bit rate : 2 463 Kbps
Width : 1 280 pixels
Height : 720 pixels
Display aspect ratio : 16:9
Frame rate : 25.000 fps
Standard : PAL
Color space : YUV
Chroma subsampling : 4:2:0
Bit depth : 8 bits
Scan type : Progressive
Bits/(Pixel*Frame) : 0.107
Stream size : 1.65 GiB (85%)
Language : German

Audio #1
ID : 2
Format : AC-3
Format/Info : Audio Coding 3
Mode extension : CM (complete main)
Codec ID : A_AC3
Duration : 1h 35mn
Bit rate mode : Constant
Bit rate : 192 Kbps
Channel(s) : 2 channels
Channel positions : Front: L R
Sampling rate : 48.0 KHz
Bit depth : 16 bits
Compression mode : Lossy
Stream size : 132 MiB (7%)

Audio #2
ID : 3
Format : AC-3
Format/Info : Audio Coding 3
Mode extension : CM (complete main)
Codec ID : A_AC3
Duration : 1h 35mn
Bit rate mode : Constant
Bit rate : 192 Kbps
Channel(s) : 2 channels
Channel positions : Front: L R
Sampling rate : 48.0 KHz
Bit depth : 16 bits
Compression mode : Lossy
Stream size : 132 MiB (7%)
Language : French
eD2K link Rock.Hudson.-.Schöner.fremder.Mann.(Beau.ténébreux).(2010).ArteRip.x264.720p.ger-fre.mkv [1.94 Gb] 
the english parts are in german subtitle, I have also the french version with the parts in french subtitled. i can that version offer as download, only the video

Avatar de Usuario
boettcher
 
Mensajes: 1573
Registrado: 17 Oct 2012, 12:01
Agradecido : 965 veces
Agradecimiento recibido: 256 veces

Re: Rock Hudson - Schöner fremder Mann (2010) HDTVRip 720p VO

Mensaje por boettcher » 15 Jul 2014, 19:28

Thank you, Initiand :)

Avatar de Usuario
toerless
 
Mensajes: 870
Registrado: 16 Oct 2012, 16:27
Agradecido : 115 veces
Agradecimiento recibido: 516 veces

Re: Rock Hudson - Schöner fremder Mann (2010) HDTVRip 720p VO

Mensaje por toerless » 16 Jul 2014, 00:57

Danke, ini!
Vor allem, dass Du wieder auftrittst!
Eine echte Freude, Dich wieder zu hören!

Avatar de Usuario
Initiand
 
Mensajes: 536
Registrado: 21 Oct 2012, 19:59
Agradecido : 269 veces
Agradecimiento recibido: 1201 veces

Re: Rock Hudson - Schöner fremder Mann (2010) HDTVRip 720p VO

Mensaje por Initiand » 16 Jul 2014, 01:37

Hallo Törless;

Wenn ich nichts zu schneiden habe, habe ich keine Probleme.

Bei dem Film gibts das Problem, dass die englischen Original Passagen mit deu Subs versehen wurden. Der gesprochene Text ist entweder in Deutsch oder Französisch.

Gruß

Ini :colega:

Avatar de Usuario
kabuki71
 
Mensajes: 5
Registrado: 19 Oct 2012, 22:25
Ubicación: Alemania

Re: Rock Hudson - Schöner fremder Mann (2010) HDTVRip 720p VO

Mensaje por kabuki71 » 20 Jul 2014, 11:21

toerless escribió:Danke, ini!
Vor allem, dass Du wieder auftrittst!
Eine echte Freude, Dich wieder zu hören!
das finde ich auch! :drinks:


imagen encantadora, ini :santo:

Responder

Volver a “Documentales”