El desencanto (Jaime Chávarri, 1976) Ver Índice

Puntuación
Sin
puntuar

Moderador: loperena

Reglas del Foro
Norma de los tres años.
Responder
Avatar de Usuario
chuschao
 
Mensajes: 5486
Registrado: 13 Sep 2012, 18:40
Ubicación: En un lugar de La Alcarria.
Agradecido : 1671 veces
Agradecimiento recibido: 1199 veces

España El desencanto (Jaime Chávarri, 1976) Ver Índice

Mensaje por chuschao » 06 Mar 2014, 12:40

Índice de Ripeos: -

*Nota: Tenga en cuenta la calidad de cada ripeo para hacer la mejor elección. Haga click aquí para más información.
Carioco en Archivo Cine-Clásico
Imagen
Duración: 92 min.
Director: Jaime Chávarri
Guion: Jaime Chávarri
Leopoldo Panero, poeta, murió en 1962 en Astorga, donde había nacido. Catorce años más tarde, las personas que más íntimamente estuvieron ligadas a él, Felicidad Blanc, su viuda, y sus tres hijos, recuerdan aquel caluroso día de agosto. El recuerdo queda sometido a algo más que aquella fecha: surgen otras vivencias. Y a través de la palabra y del recorrido por habitaciones, objetos, calles y lugares perdidos, se desvela la historia de unos años y de unas personas unidas por vínculos familiares que en ningún momento huyen de la expresión de sus diferencias y de sus identidades.
"Durante el período de transición política española, se rueda un buen número de documentales para tratar de reflejar en la pantalla la realidad prohibida durante décadas. El mejor es esta disección, más que análisis, de lo que pudiera ser una típica familia española del antiguo régimen. Nacida con la intención de ser un cortometraje, pero convertido en un largo al apreciar, el productor Elías Querejeta y el realizador Jaime Chávarri, cómo crecían las posibilidades del tema, su título se convierte en una palabra emblemática, representativa de un sentimiento generacional ante los nuevos tiempos. (...) Convertida en uno de los pocos clásicos del documental español, dieciocho años después, desaparecida la madre, el guionista y director Ricardo Franco reúne a los tres hermanos para hacer "Después de tantos años", un brillante documento sobre la decadencia física que conduce a la muerte."
"Diccionario Espasa de Cine Español, de Augusto M. Torres".

Código: Seleccionar todo

Tamaño: 700Mb
Duración: 1:31:52

Vídeo:
Codec: DX50     Name: DivX 5.0.5
Frms: 137.78         kbps: 800         Pics: 25.000   Fr/s: 25.000
Resolución: 448x336  (4:3)

Audio:
Codec: 0x2000 (Dolby AC3) AC3
48000 Hz     256kb/s tot  Stereo (2/0)
Imagen Imagen Imagen Imagen

Imagen
Imagen
“Podré no estar de acuerdo con lo que dices, pero defenderé hasta la muerte tu derecho a decirlo”

Avatar de Usuario
jotarapidup
 
Mensajes: 909
Registrado: 02 Oct 2012, 21:05
Ubicación: Valdivia, Chile.
Agradecido : 24 veces
Agradecimiento recibido: 218 veces

España El desencanto (Jaime Chávarri, 1976) DVDRip VO

Mensaje por jotarapidup » 06 Mar 2014, 15:15

Imagen
EL DESENCANTO
Leopoldo Panero, poeta, murió en Astorga, donde había nacido, en el año 1962. Catorce años más tarde, las personas que más íntimamente estuvieron ligadas a él, Felicidad Blanch, su viuda, y sus tres hijos, recuerdan aquel caluroso día de Agosto. El recuerdo queda sometido a algo más que aquella fecha: surgen otras vivencias. Y a través de la palabra y del recorrido por habitaciones, objetos, calles y lugares perdidos, se desvela la historia de unos años y de unas personas unidas por vínculos familiares que en ningún momento huyen de la expresión de sus diferencias y de sus identidades.
Reparto: Felicidad Blanc, Juan Luis Panero, Leopoldo María Panero, Michi Panero
Imagen
Imagen
Imagen
Imagen
Imagen
Imagen
Imagen
Imagen
Imagen

Código: Seleccionar todo

General
Unique ID                                : 193153320110842218952131267690094511837 (0x914FF9EF2F71818AB6B89A7410B1C6DD)
Complete name                            : C:\Users\juaco\Documents\Downloads\El desencanto (Jaime Chávarri, 1976)\El desencanto (Jaime Chávarri, 1976).DVDRip.mkv
Format                                   : Matroska
Format version                           : Version 2
File size                                : 2.00 GiB
Duration                                 : 1h 31mn
Overall bit rate                         : 3 119 Kbps
Encoded date                             : UTC 2013-01-27 19:01:40
Writing application                      : mkvmerge v5.8.0 ('No Sleep / Pillow') built on Sep  2 2012 15:37:04
Writing library                          : libebml v1.2.3 + libmatroska v1.3.0

Video
ID                                       : 1
Format                                   : AVC
Format/Info                              : Advanced Video Codec
Format profile                           : High@L4.1
Format settings, CABAC                   : Yes
Format settings, ReFrames                : 4 frames
Codec ID                                 : V_MPEG4/ISO/AVC
Duration                                 : 1h 31mn
Bit rate                                 : 2 925 Kbps
Width                                    : 720 pixels
Height                                   : 406 pixels
Display aspect ratio                     : 16:9
Frame rate mode                          : Constant
Frame rate                               : 25.000 fps
Color space                              : YUV
Chroma subsampling                       : 4:2:0
Bit depth                                : 8 bits
Scan type                                : Progressive
Bits/(Pixel*Frame)                       : 0.400
Stream size                              : 1.84 GiB (92%)
Writing library                          : x264 core 129 r2230 1cffe9f
Encoding settings                        : cabac=1 / ref=3 / deblock=1:-1:-1 / analyse=0x3:0x113 / me=hex / subme=7 / psy=1 / psy_rd=1.00:0.15 / mixed_ref=1 / me_range=16 / chroma_me=1 / trellis=1 / 8x8dct=1 / cqm=0 / deadzone=21,11 / fast_pskip=1 / chroma_qp_offset=-3 / threads=3 / lookahead_threads=1 / sliced_threads=0 / nr=0 / decimate=1 / interlaced=0 / bluray_compat=0 / constrained_intra=0 / bframes=3 / b_pyramid=2 / b_adapt=1 / b_bias=0 / direct=1 / weightb=1 / open_gop=0 / weightp=2 / keyint=250 / keyint_min=25 / scenecut=40 / intra_refresh=0 / rc_lookahead=40 / rc=2pass / mbtree=1 / bitrate=2925 / ratetol=1.0 / qcomp=0.60 / qpmin=0 / qpmax=69 / qpstep=4 / cplxblur=20.0 / qblur=0.5 / ip_ratio=1.40 / aq=1:1.00
Language                                 : English
Default                                  : Yes
Forced                                   : No

Audio
ID                                       : 2
Format                                   : AC-3
Format/Info                              : Audio Coding 3
Mode extension                           : CM (complete main)
Format settings, Endianness              : Big
Codec ID                                 : A_AC3
Duration                                 : 1h 31mn
Bit rate mode                            : Constant
Bit rate                                 : 192 Kbps
Channel(s)                               : 2 channels
Channel positions                        : Front: L R
Sampling rate                            : 48.0 KHz
Bit depth                                : 16 bits
Compression mode                         : Lossy
Stream size                              : 126 MiB (6%)
Default                                  : Yes
Forced                                   : No
DVDRip de Pipa para 24fps
Desconfiad de las personas que nunca ríen, no son personas serias. (Julio César)

Avatar de Usuario
jotarapidup
 
Mensajes: 909
Registrado: 02 Oct 2012, 21:05
Ubicación: Valdivia, Chile.
Agradecido : 24 veces
Agradecimiento recibido: 218 veces

Re: El desencanto (Jaime Chávarri, 1976) DVDRip

Mensaje por jotarapidup » 06 Mar 2014, 15:19

Por aquí les acerco el mejor Rip de circula en la red. Que disfruten :hi:
Desconfiad de las personas que nunca ríen, no son personas serias. (Julio César)

Avatar de Usuario
yojimbo
 
Mensajes: 9246
Registrado: 18 Oct 2012, 14:25
Agradecido : 9257 veces
Agradecimiento recibido: 2333 veces

Re: El desencanto (Jaime Chávarri, 1976) DVDRip

Mensaje por yojimbo » 06 Mar 2014, 15:37

Muchas gracias por traerlo, jota.

Avatar de Usuario
droid
 
Mensajes: 8141
Registrado: 12 Sep 2012, 03:37
Agradecido : 4644 veces
Agradecimiento recibido: 7006 veces

Re: El desencanto (Jaime Chávarri, 1976) DVDRip

Mensaje por droid » 06 Mar 2014, 15:44

Muchas gracias, Jota.

Acabo de ver hace un momento en La Sexta que en 2004 (creo recordar) se hizo también un documental sobre los últimos años de Panero en un psiquiátrico de Las palmas en la que estaba ingresado, aunque tampoco recuerdo el nombre del documental. Si alguien lo sabe, que deje por aquí el título ya que estoy interesado en verlo.

Saludos. :hi:

edu73
 
Mensajes: 11
Registrado: 18 Oct 2012, 09:10
Agradecimiento recibido: 1 vez

Re: El desencanto (Jaime Chávarri, 1976) DVDRip

Mensaje por edu73 » 06 Mar 2014, 15:51

El título es "Dios de la vida,Dios de los suicidas".Un fuerte abrazo.

Avatar de Usuario
Bunker
 
Mensajes: 5198
Registrado: 03 Oct 2012, 00:05
Agradecido : 3 veces
Agradecimiento recibido: 1342 veces

Re: El desencanto (Jaime Chávarri, 1976) DVDRip VO

Mensaje por Bunker » 06 Mar 2014, 16:05

Gracias Jota.

Avatar de Usuario
droid
 
Mensajes: 8141
Registrado: 12 Sep 2012, 03:37
Agradecido : 4644 veces
Agradecimiento recibido: 7006 veces

Re: El desencanto (Jaime Chávarri, 1976) DVDRip

Mensaje por droid » 06 Mar 2014, 16:07

edu73 escribió:El título es "Dios de la vida,Dios de los suicidas".Un fuerte abrazo.
Muchas gracias, edu73. :up: Voy a buscarlo ya mismo por la red.

Otro fuerte abrazo para ti. :hi:

Avatar de Usuario
JoeRaymond
 
Mensajes: 973
Registrado: 16 Oct 2012, 15:29
Agradecido : 943 veces
Agradecimiento recibido: 143 veces

Re: El desencanto (Jaime Chávarri, 1976) Ver Índice

Mensaje por JoeRaymond » 06 Mar 2014, 19:32

Muchas gracias.

Avatar de Usuario
chuschao
 
Mensajes: 5486
Registrado: 13 Sep 2012, 18:40
Ubicación: En un lugar de La Alcarria.
Agradecido : 1671 veces
Agradecimiento recibido: 1199 veces

Re: El desencanto (Jaime Chávarri, 1976) Ver Índice

Mensaje por chuschao » 06 Mar 2014, 20:01

¿Y nadie tiene o sabe dónde encontrar la película de Ricardo Franco sobre el mismo tema: Después de tantos años?
“Podré no estar de acuerdo con lo que dices, pero defenderé hasta la muerte tu derecho a decirlo”

Responder

Volver a “Documentales”