Caligari - Wie der Horror ins Kino kam (Rüdiger Suchsland, 2014) HDTVRip 720p VOSE

Puntuación
Sin
puntuar

Moderador: loperena

Reglas del Foro
Norma de los tres años.
Responder
Avatar de Usuario
loperena
 
Mensajes: 2518
Registrado: 02 Oct 2012, 23:01
Agradecido : 276 veces
Agradecimiento recibido: 735 veces

Re: Caligari - Wie der Horror ins Kino kam (Rüdiger Suchsland, 2014) HDTVRip 720p VO

Mensaje por loperena » 04 Mar 2018, 12:28

Initiand escribió:
03 Mar 2018, 22:21
Von Caligari zu Hitler (2014)

rusisan torrent: https://rutracker.org/forum/viewtopic.php?t=5304446

Mule:

Código: Seleccionar todo

Complete name               : Deutsches Kino- Von Caligari zu Hitler (2014) DVDRip ger.mkv
Format                      : Matroska
Format version              : Version 4 / Version 2
File size                   : 1.36 GiB
Duration                    : 1 h 53 min
Overall bit rate            : 1 715 kb/s
Encoded date                : UTC 2018-03-03 20:29:25
Writing application         : mkvmerge v16.0.0 ('Protest') 64-bit
Writing library             : libebml v1.3.5 + libmatroska v1.4.8

Video
ID                          : 1
Format                      : MPEG-4 Visual
Format profile              : Advanced Simple@L5
Format settings, BVOP       : 1
Format settings, QPel       : No
Format settings, GMC        : No warppoints
Format settings, Matrix     : Custom
Codec ID                    : V_MS/VFW/FOURCC / XVID
Codec ID/Hint               : XviD
Duration                    : 1 h 53 min
Bit rate                    : 1 586 kb/s
Width                       : 672 pixels
Height                      : 400 pixels
Display aspect ratio        : 5:3
Frame rate mode             : Constant
Frame rate                  : 25.000 FPS
Color space                 : YUV
Chroma subsampling          : 4:2:0
Bit depth                   : 8 bits
Scan type                   : Progressive
Compression mode            : Lossy
Bits/(Pixel*Frame)          : 0.236
Stream size                 : 1.26 GiB (92%)
Title                       : DVD ger
Writing library             : XviD 64
Language                    : German
Default                     : Yes
Forced                      : No

Audio
ID                          : 2
Format                      : MPEG Audio
Format version              : Version 1
Format profile              : Layer 3
Mode                        : Joint stereo
Mode extension              : MS Stereo
Codec ID                    : A_MPEG/L3
Codec ID/Hint               : MP3
Duration                    : 1 h 53 min
Bit rate mode               : Constant
Bit rate                    : 128 kb/s
Channel(s)                  : 2 channels
Sampling rate               : 48.0 kHz
Frame rate                  : 41.667 FPS (1152 spf)
Compression mode            : Lossy
Stream size                 : 104 MiB (7%)
Title                       : 2ch ger
Writing library             : LAME3.98r
Encoding settings           : -m j -V 4 -q 2 -lowpass 17 -b 128
Language                    : German
Default                     : Yes
Forced                      : No

eD2K link Deutsches Kino- Von Caligari zu Hitler (2014) DVDRip ger.mkv [1.36 Gb] 

DVD with Subtitles: Alemán, Inglés, Hebreo, Italiano, Español

Amazon espagnol. https://www.amazon.es/Von-Caligari-Hitl ... +zu+Hitler
Tengo la misma copia procedente de KG. Si alguien pudiera descargarla de rutracker y emulizarla, yo le abro post.

Imagen
Imagen

Por cierto, subtítulos en español (procedentes del mismo ripeo) aquí:

http://www.subdivx.com/bajar.php?id=528396&u=8

Avatar de Usuario
Initiand
 
Mensajes: 536
Registrado: 21 Oct 2012, 19:59
Agradecido : 269 veces
Agradecimiento recibido: 1201 veces

Re: Caligari - Wie der Horror ins Kino kam (Rüdiger Suchsland, 2014) HDTVRip 720p VO

Mensaje por Initiand » 04 Mar 2018, 13:43

Esta es la dirección emule del torrente editado:

eD2K link Deutsches Kino- Von Caligari zu Hitler (2014) DVDRip ger.mkv [1.36 Gb] 

Pedí el DVD y terminaré una copia con los subtítulos

Avatar de Usuario
loperena
 
Mensajes: 2518
Registrado: 02 Oct 2012, 23:01
Agradecido : 276 veces
Agradecimiento recibido: 735 veces

Re: Caligari - Wie der Horror ins Kino kam (Rüdiger Suchsland, 2014) HDTVRip 720p VO

Mensaje por loperena » 04 Mar 2018, 14:09

Initiand escribió:
04 Mar 2018, 13:43
Esta es la dirección emule del torrente editado:

eD2K link Deutsches Kino- Von Caligari zu Hitler (2014) DVDRip ger.mkv [1.36 Gb] 

Pedí el DVD y terminaré una copia con los subtítulos
Muchas gracias :aplauso: :aplauso: Post abierto aquí

Avatar de Usuario
sete
 
Mensajes: 4322
Registrado: 22 Dic 2012, 16:10
Agradecido : 197 veces
Agradecimiento recibido: 1269 veces

Re: Caligari - Wie der Horror ins Kino kam (Rüdiger Suchsland, 2014) HDTVRip 720p VO

Mensaje por sete » 04 Mar 2018, 18:47

Muchas gracias, Initiand.
:hi:
Este mundo está traicionando a la vida.
José Luis Sampedro

Avatar de Usuario
toerless
 
Mensajes: 869
Registrado: 16 Oct 2012, 16:27
Agradecido : 115 veces
Agradecimiento recibido: 514 veces

Re: Caligari - Wie der Horror ins Kino kam (Rüdiger Suchsland, 2014) HDTVRip 720p VO

Mensaje por toerless » 05 Mar 2018, 13:34

Man braucht kein Geld está aquí hace ya mucho tiempo:
https://subscene.com/subtitles/man-brau ... sh/1232478

Responder

Volver a “Documentales”