Embracing Chaos: Making The African Queen (E Young, 2010) HDRip 720p VOSE

Puntuación
Sin
puntuar

Sumergiéndonos en el caos el rodaje de La Reina de África

Moderador: loperena

Reglas del Foro
Norma de los tres años.
Responder
Avatar de Usuario
jomime
 
Mensajes: 152
Registrado: 16 Oct 2012, 15:41
Agradecido : 14 veces
Agradecimiento recibido: 280 veces

Estados Unidos Embracing Chaos: Making The African Queen (E Young, 2010) HDRip 720p VOSE

Mensaje por jomime » 24 Dic 2013, 13:03

Imagen
Sumergiéndonos en el caos el rodaje de La Reina de África (2010)(Documental) Bdrip 720p V.O

IMDb

En éste caso el currazo gordo se lo ha metido Dardo (que mira que le gusta estar en todos los fregaos Imagen) ya que, ha creado el solito, línea por línea, unos subtítulos haciendo un "megamix" entre los ingleses y latinos del Bluray, y los castizos del DVD Imagen, y también se han incluido en formato .ssa, en naranja ... "mu potitos"

De paso, ya que los tenía a mano, he incluido también los latinos en el mkv

Código: Seleccionar todo

General
Complete name                            : Sumergiéndonos en el caos el rodaje de La Reina de África (2010) Bdrip 720p V.O [Subs Spa & Eng][DivXClásico.com].mkv
Format                                   : Matroska
Format version                           : Version 4 / Version 2
File size                                : 1.61 GiB
Duration                                 : 59mn 23s
Overall bit rate                         : 3 873 Kbps
Encoded date                             : UTC 2013-12-21 15:25:49
Writing application                      : mkvmerge v6.3.0 ('You can't stop me!') built on Jun 28 2013 20:09:41
Writing library                          : libebml v1.3.0 + libmatroska v1.4.0

Video
ID                                       : 1
Format                                   : AVC
Format/Info                              : Advanced Video Codec
Format profile                           : High@L4.1
Format settings, CABAC                   : Yes
Format settings, ReFrames                : 9 frames
Codec ID                                 : V_MPEG4/ISO/AVC
Duration                                 : 59mn 23s
Bit rate                                 : 3 572 Kbps
Width                                    : 1 280 pixels
Height                                   : 720 pixels
Display aspect ratio                     : 16:9
Frame rate mode                          : Constant
Frame rate                               : 23.976 fps
Color space                              : YUV
Chroma subsampling                       : 4:2:0
Bit depth                                : 8 bits
Scan type                                : Progressive
Bits/(Pixel*Frame)                       : 0.162
Stream size                              : 1.48 GiB (92%)
Writing library                          : x264 core 133 r2334 a3ac64b
Encoding settings                        : cabac=1 / ref=9 / deblock=1:-1:-1 / analyse=0x3:0x133 / me=umh / subme=10 / psy=1 / psy_rd=1.00:0.15 / mixed_ref=1 / me_range=24 / chroma_me=1 / trellis=2 / 8x8dct=1 / cqm=0 / deadzone=21,11 / fast_pskip=1 / chroma_qp_offset=-3 / threads=18 / lookahead_threads=3 / sliced_threads=0 / nr=0 / decimate=1 / interlaced=0 / bluray_compat=0 / constrained_intra=0 / bframes=8 / b_pyramid=2 / b_adapt=2 / b_bias=0 / direct=3 / weightb=1 / open_gop=0 / weightp=2 / keyint=250 / keyint_min=23 / scenecut=40 / intra_refresh=0 / rc_lookahead=60 / rc=crf / mbtree=1 / crf=19.0 / qcomp=0.60 / qpmin=0 / qpmax=69 / qpstep=4 / ip_ratio=1.40 / aq=1:1.00
Language                                 : English
Default                                  : Yes
Forced                                   : No

Audio
ID                                       : 2
Format                                   : AC-3
Format/Info                              : Audio Coding 3
Mode extension                           : CM (complete main)
Format settings, Endianness              : Big
Codec ID                                 : A_AC3
Duration                                 : 59mn 23s
Bit rate mode                            : Constant
Bit rate                                 : 224 Kbps
Channel count                            : 2 channels
Channel positions                        : Front: L R
Sampling rate                            : 48.0 KHz
Bit depth                                : 16 bits
Compression mode                         : Lossy
Stream size                              : 95.2 MiB (6%)
Title                                    : Inglés
Language                                 : English
Default                                  : Yes
Forced                                   : No

Text #1
ID                                       : 3
Format                                   : UTF-8
Codec ID                                 : S_TEXT/UTF8
Codec ID/Info                            : UTF-8 Plain Text
Title                                    : Español
Language                                 : Spanish
Default                                  : Yes
Forced                                   : No

Text #2
ID                                       : 4
Format                                   : SSA
Codec ID                                 : S_TEXT/SSA
Codec ID/Info                            : Sub Station Alpha
Compression mode                         : Lossless
Title                                    : Español ssa
Language                                 : Spanish
Default                                  : No
Forced                                   : No

Text #3
ID                                       : 5
Format                                   : UTF-8
Codec ID                                 : S_TEXT/UTF8
Codec ID/Info                            : UTF-8 Plain Text
Title                                    : Latino
Language                                 : Spanish
Default                                  : No
Forced                                   : No

Text #4
ID                                       : 6
Format                                   : UTF-8
Codec ID                                 : S_TEXT/UTF8
Codec ID/Info                            : UTF-8 Plain Text
Title                                    : Inglés
Language                                 : English
Default                                  : No
Forced                                   : No

Fuente : Full Bluray
Tamaño : 1.61 GIB
Audio : Inglés
Resolución: 986p X 720p
Subtítulos: Español/Latino/Inglés
Enlaces DD

Avatar de Usuario
yojimbo
 
Mensajes: 9246
Registrado: 18 Oct 2012, 14:25
Agradecido : 9257 veces
Agradecimiento recibido: 2333 veces

Re: Embracing Chaos: Making The African Queen (E Young, 2010) HD 720p VOSE

Mensaje por yojimbo » 24 Dic 2013, 13:19

Me apunto a la versión mulera. Muchas gracias, jomime y Dardo.

Saludos.

Avatar de Usuario
Monsieur Lange
 
Mensajes: 4454
Registrado: 13 Sep 2012, 19:39
Ubicación: Cruzando las dunas
Agradecido : 1217 veces
Agradecimiento recibido: 1436 veces

Re: Embracing Chaos: Making The African Queen (E Young, 2010) HD 720p VOSE

Mensaje por Monsieur Lange » 24 Dic 2013, 14:52

Lo mismo digo. Gracias jomime y Dardo.
Pa la mula que viene.
"Adaptar no es recalentar la comida"
Alain Resnais

ciberyago
 
Mensajes: 2302
Registrado: 20 Oct 2012, 07:26
Agradecimiento recibido: 355 veces

Re: Embracing Chaos: Making The African Queen (E Young, 2010) HD 720p VOSE

Mensaje por ciberyago » 25 Dic 2013, 09:00

Muchas gracias Jomine y Dardo!!!
Arre la mulita y felicidades para todos

Avatar de Usuario
rt13
 
Mensajes: 196
Registrado: 06 Dic 2012, 16:23
Agradecimiento recibido: 8 veces

Re: Embracing Chaos: Making The African Queen (E Young, 2010) HD 720p VOSE

Mensaje por rt13 » 25 Dic 2013, 17:12

Pinchadaza gracias jomime y Dardo viva la mulita :hi: :hi: :hi: :hi: :hi:

Avatar de Usuario
Feve
 
Mensajes: 1462
Registrado: 13 Sep 2012, 19:46
Ubicación: Dx Dy ³ h/2
Agradecido : 292 veces
Agradecimiento recibido: 291 veces

Re: Embracing Chaos: Making The African Queen (E Young, 2010) HD 720p VOSE

Mensaje por Feve » 25 Dic 2013, 21:45

Gracias, jomime y Dardo :hi:

Avatar de Usuario
Bunker
 
Mensajes: 5198
Registrado: 03 Oct 2012, 00:05
Agradecido : 3 veces
Agradecimiento recibido: 1342 veces

Re: Embracing Chaos: Making The African Queen (E Young, 2010) HD 720p VOSE

Mensaje por Bunker » 26 Dic 2013, 04:33

Muchas gracias.

Avatar de Usuario
Gooffy
 
Mensajes: 2266
Registrado: 21 Oct 2012, 15:35
Ubicación: Atlántida, Uruguay
Agradecido : 29 veces
Agradecimiento recibido: 51 veces

Re: Embracing Chaos: Making The African Queen (E Young, 2010) HD 720p VOSE

Mensaje por Gooffy » 26 Dic 2013, 23:29

WOW....!!!!! muchas gracias....bajando....!!!! :aplauso: :aplauso: :aplauso:

Avatar de Usuario
Gooffy
 
Mensajes: 2266
Registrado: 21 Oct 2012, 15:35
Ubicación: Atlántida, Uruguay
Agradecido : 29 veces
Agradecimiento recibido: 51 veces

Re: Embracing Chaos: Making The African Queen (E Young, 2010) HD 720p VOSE

Mensaje por Gooffy » 05 Ene 2014, 04:29

completada y compartiendo .....gracias.....!!!!! :hi:

oskib
 
Mensajes: 638
Registrado: 16 Oct 2012, 17:37
Ubicación: San Nicolás - Argentina
Agradecido : 533 veces
Agradecimiento recibido: 157 veces

Re: Embracing Chaos: Making The African Queen (E Young, 2010) HD 720p VOSE

Mensaje por oskib » 05 Ene 2014, 06:05

Muchas gracias, Dardo y jomime. :hi: :hi:

Responder

Volver a “Documentales”