Tempo di viaggio (Tonino Guerra, Andrei Tarkovsky,1983) TVRip VOSE

Puntuación
Sin
puntuar

Moderador: loperena

Reglas del Foro
Norma de los tres años.
Responder
Avatar de Usuario
muriel
 
Mensajes: 3171
Registrado: 16 Oct 2012, 19:00
Agradecido : 307 veces
Agradecimiento recibido: 295 veces

Italia Tempo di viaggio (Tonino Guerra, Andrei Tarkovsky,1983) TVRip VOSE

Mensaje por muriel » 05 Sep 2013, 10:27

Tempo di viaggio (Tonino Guerra, Andrei Tarkovsky,1983)

Imagen

IMDB
Sinopsis:

Documental sobre el viaje a Italia del director Tarkovski y el guionista Tonino Guerra, antes de rodar “Nostalgia”.

Ficha artistica
Año: 1983
Duración: 62 min.
País: Italia
Director: Andrei Tarkovsky, Tonino Guerra
Guión: Andrei Tarkovsky, Tonino Guerra
Fotografía: Luciano Tovoli
Reparto: Documentary, Andrei Tarkovsky, Tonino Guerra
Productora: Radiotelevisione Italiana / Genius s.r.l.
Género: Documental | Documental sobre cine. Telefilm

El subpack lleva subtítulos en: vietnamita, bosnio, inglés, polaco, portugués, croata, español y turco.

Código: Seleccionar todo

Format                           : AVI
Format/Info                      : Audio Video Interleave
File size                        : 699 MiB
Duration                         : 1h 2mn
Overall bit rate                 : 1 567 Kbps
Writing application              : VirtualDubMod 1.5.4.1 (build 2178/release)
Writing library                  : VirtualDubMod build 2178/release

Video
ID                               : 0
Format                           : MPEG-4 Visual
Format profile                   : Advanced Simple@L5
Format settings, BVOP            : 1
Format settings, QPel            : No
Format settings, GMC             : No warppoints
Format settings, Matrix          : Custom
Codec ID                         : XVID
Codec ID/Hint                    : XviD
Duration                         : 1h 2mn
Bit rate                         : 1 368 Kbps
Width                            : 640 pixels
Height                           : 480 pixels
Display aspect ratio             : 4:3
Frame rate                       : 25.000 fps
Color space                      : YUV
Chroma subsampling               : 4:2:0
Bit depth                        : 8 bits
Scan type                        : Progressive
Compression mode                 : Lossy
Bits/(Pixel*Frame)               : 0.178
Stream size                      : 610 MiB (87%)
Writing library                  : XviD 1.1.2 (UTC 2006-11-01)

Audio
ID                               : 1
Format                           : MPEG Audio
Format version                   : Version 1
Format profile                   : Layer 3
Mode                             : Joint stereo
Mode extension                   : MS Stereo
Codec ID                         : 55
Codec ID/Hint                    : MP3
Duration                         : 1h 2mn
Bit rate mode                    : Constant
Bit rate                         : 192 Kbps
Channel(s)                       : 2 channels
Sampling rate                    : 48.0 KHz
Compression mode                 : Lossy
Stream size                      : 85.6 MiB (12%)
Alignment                        : Aligned on interleaves
Interleave, duration             : 80 ms (2.00 video frames)
Interleave, preload duration     : 504 ms
Writing library                  : LAME3.97 
Encoding settings                : -m j -V 4 -q 2 -lowpass 18.6 -b 192
Imagen

Imagen

Imagen
Atención! cambio el enlace ed2k este tiene más fuentes (disculpen los dos que se le habían empezado a bajar)

enlace ed2k película

eD2K link Tempo di viaggio (1988) di Andrej Tarkovskij e Tonino Guerra.avi [699.89 Mb] 

enlace ed2k subpack (8)

eD2K link Tempo Di Viaggio - 1983 - Andrei Tarkovsky - Tonino Guerra - 8subs.rar [135.2 Kb] 
Por favor, cuando completéis los archivos mantenedlos al menos 15 días en el incoming. Gracias.
Imagen

ciberyago
 
Mensajes: 2298
Registrado: 20 Oct 2012, 07:26
Agradecimiento recibido: 353 veces

Re: Tempo di viaggio (Tonino Guerra, Andrei Tarkovsky,1983) TVRip VOSE

Mensaje por ciberyago » 06 Sep 2013, 06:03

Creo que mejora mi copia.
¡Gracias Muriel!

Avatar de Usuario
sete
 
Mensajes: 4318
Registrado: 22 Dic 2012, 16:10
Agradecido : 191 veces
Agradecimiento recibido: 1262 veces

Re: Tempo di viaggio (Tonino Guerra, Andrei Tarkovsky,1983) TVRip VOSE

Mensaje por sete » 07 Sep 2013, 08:06

Completo y compartiendo.
Muchas gracias, muriel.
:hi:
Este mundo está traicionando a la vida.
José Luis Sampedro

Responder

Volver a “Documentales”