Soy Cuba, O Mamute Siberiano (Vicente Ferraz, 2005) DVDRip VOSIt

Puntuación
Sin
puntuar

Moderador: loperena

Reglas del Foro
Norma de los tres años.
Responder
gilles
 
Mensajes: 540
Registrado: 21 Ene 2013, 11:15
Agradecido : 32 veces
Agradecimiento recibido: 268 veces

Brasil Soy Cuba, O Mamute Siberiano (Vicente Ferraz, 2005) DVDRip VOSIt

Mensaje por gilles » 24 Feb 2013, 10:18

Soy Cuba, O Mamute Siberiano (Vicente Ferraz, 2005)


Imagen

IMDb

Sinopsis

A inicios de los años 60 el famoso director soviético Mikhail Kalatozov, junto a un equipo de 200 personas, filmó en Cuba la superproducción "Soy Cuba", que pretendía ser una poderosa arma de la revolución cubana, pero fue ignorada luego de su estreno en La Habana y Moscú. Redescubierto en los años 90 por Martin Scorsese y Francis Ford Coppola, este documental revela un momento clave en la historia del cine a través de los relatos de actores y técnicos sobrevivientes, y muestra el insólito contraste en el brillo del alma eslava y los claro-oscuros de la cultura afro-cubana.

Para datos sobre la pelicula:Soy Cuba, Mikhail Kalatozov

Ficha artistica

AÑO
2005
DURACIÓN
90 min
PAÍS
Brasil
DIRECTOR
Vicente Ferraz

Este Rip, publicado en Clan-sudamerica.net, esta en VO con subtítulos incrustado en Italiano. Gano el Premio a Mejor Documental en Lima.

Datos técnicos

Código: Seleccionar todo

Format                                   : DivX
Format/Info                              : Hack of AVI
File size                                : 700 MiB
Duration                                 : 1h 31mn
Overall bit rate                         : 1 075 Kbps

Video
ID                                       : 0
Format                                   : MPEG-4 Visual
Format settings, BVOP                    : 1
Format settings, QPel                    : No
Format settings, GMC                     : No warppoints
Format settings, Matrix                  : Default (H.263)
Muxing mode                              : Packed bitstream
Codec ID                                 : DX50
Codec ID/Hint                            : DivX 5
Duration                                 : 1h 31mn
Bit rate                                 : 985 Kbps
Width                                    : 720 pixels
Height                                   : 400 pixels
Display aspect ratio                     : 16:9
Frame rate                               : 25.000 fps
Color space                              : YUV
Chroma subsampling                       : 4:2:0
Bit depth                                : 8 bits
Scan type                                : Progressive
Compression mode                         : Lossy
Bits/(Pixel*Frame)                       : 0.137
Stream size                              : 642 MiB (92%)
Title                                    : Video 
Writing library                          : DivX 6.2.5 (UTC 2006-07)

Audio
ID                                       : 1
Format                                   : MPEG Audio
Format version                           : Version 1
Format profile                           : Layer 3
Mode                                     : Dual mono
Codec ID                                 : 55
Codec ID/Hint                            : MP3
Duration                                 : 1h 31mn
Bit rate mode                            : Constant
Bit rate                                 : 80.0 Kbps
Channel(s)                               : 2 channels
Sampling rate                            : 48.0 KHz
Compression mode                         : Lossy
Stream size                              : 52.1 MiB (7%)
Alignment                                : Split accross interleaves
Interleave, duration                     : 40 ms (1.00 video frame)
Interleave, preload duration             : 500 ms
Capturas

Imagen
Imagen
Imagen

eD2K link Soy Cuba (O Mamute Siberiano) -2005- Vicente Ferraz -Documentario-.avi [700.19 Mb] 

Subtitulos en español
Última edición por gilles el 24 Abr 2013, 16:49, editado 1 vez en total.

Avatar de Usuario
Bunker
 
Mensajes: 5198
Registrado: 03 Oct 2012, 00:05
Agradecido : 3 veces
Agradecimiento recibido: 1342 veces

Re: Soy Cuba, O Mamute Siberiano (Vicente Ferraz, 2005) DVDRip VOSIt

Mensaje por Bunker » 24 Feb 2013, 16:34

Gracias gilles, lo sumo al lote.
:hi:

Responder

Volver a “Documentales”