Sin título (X Alfonso, 2009) WEBRip VO

Puntuación
Sin
puntuar

Moderador: loperena

Reglas del Foro
Norma de los tres años.
Responder
gilles
 
Mensajes: 540
Registrado: 21 Ene 2013, 11:15
Agradecido : 32 veces
Agradecimiento recibido: 268 veces

Cuba Sin título (X Alfonso, 2009) WEBRip VO

Mensaje por gilles » 06 Feb 2013, 10:58

Sin título (X Alfonso, 2009)


Imagen

Sinopsis

X Alfonso, "músico, poeta y loco", realiza este más que recomendable documental sobre gente, individualidades, sueños, vida... El cual le toma el pulso a la vida cotidiana y a las aspiraciones de un grupo de personas de diferentes sectores sociales. Así aparecen afiladores de cuchillos, camarógrafos, raperos, pintores, bailarines de Danza Abierta, pasando por el director de Teatro de la Luna, Raúl Martín, hasta Ele y Carlos, entre otros.

Imagen

Ficha artistica

Director:
X Alfonso
Protagonistas:
Jóvenes artistas quienes proyectan la tradición hacia la contemporaneidad.
Idioma:
Español
País:
Cuba
Género:
Documental
Tiempo:
70 minutos

X Alfonso, musico, premio Goya a la mejor banda sonora por Habana Blues, firma con maestría este documental.
Después de la obra muda de Fernando Perez "Suite Habana", Sin Titulo da la palabra a una nueva generación de artistas que dibujen la Cuba de hoy.

Datos técnicos

Ripeo de Maboutoune publicado en Clan-sudamerica.net

Código: Seleccionar todo

Format                                   : AVI
Format/Info                              : Audio Video Interleave
File size                                : 433 MiB
Duration                                 : 1h 11mn
Overall bit rate                         : 842 Kbps

Video
ID                                       : 0
Format                                   : MPEG-4 Visual
Format profile                           : Simple@L1
Format settings, BVOP                    : No
Format settings, QPel                    : No
Format settings, GMC                     : No warppoints
Format settings, Matrix                  : Default (H.263)
Codec ID                                 : DX50
Codec ID/Hint                            : DivX 5
Duration                                 : 1h 11mn
Bit rate                                 : 701 Kbps
Width                                    : 640 pixels
Height                                   : 350 pixels
Display aspect ratio                     : 16:9
Frame rate                               : 25.000 fps
Color space                              : YUV
Chroma subsampling                       : 4:2:0
Bit depth                                : 8 bits
Scan type                                : Progressive
Compression mode                         : Lossy
Bits/(Pixel*Frame)                       : 0.125
Stream size                              : 361 MiB (83%)
Writing library                          : Lavc52.87.1

Audio
ID                                       : 1
Format                                   : AAC
Format/Info                              : Advanced Audio Codec
Format profile                           : LC
Codec ID                                 : FF
Duration                                 : 1h 11mn
Bit rate                                 : 128 Kbps
Channel(s)                               : 2 channels
Channel positions                        : Front: L R
Sampling rate                            : 44.1 KHz
Compression mode                         : Lossy
Stream size                              : 65.4 MiB (15%)
Alignment                                : Aligned on interleaves
Interleave, duration                     : 23 ms (0.58 video frame)
Capturas

Imagen
Imagen
Imagen
Imagen

eD2K link Sin-Titulo-2009-XAlfonso.avi [432.81 Mb] 
Última edición por gilles el 24 Abr 2013, 16:44, editado 3 veces en total.

Avatar de Usuario
Bunker
 
Mensajes: 5198
Registrado: 03 Oct 2012, 00:05
Agradecido : 3 veces
Agradecimiento recibido: 1342 veces

Re: Sin título (X Alfonso, 2009) WEBRip

Mensaje por Bunker » 06 Feb 2013, 11:44

Gracias :hi:

Responder

Volver a “Documentales”