Now (Santiago Alvarez, 1965) DVDRip VO

Puntuación
Sin
puntuar

Moderador: loperena

Reglas del Foro
Norma de los tres años.
Responder
gilles
 
Mensajes: 540
Registrado: 21 Ene 2013, 11:15
Agradecido : 32 veces
Agradecimiento recibido: 268 veces

Cuba Now (Santiago Alvarez, 1965) DVDRip VO

Mensaje por gilles » 05 Feb 2013, 20:53

Now (Santiago Alvarez, 1965) DVDRip


Imagen

IMDb

Sinopsis

Clip sobre la lucha contra la discriminación racial en Estados Unidos. El texto de la canción se refiere a la necesidad urgente de luchar, con métodos más eficaces, por la igualdad de derechos ciudadanos de los negros en aquel paí­s. Se muestran los incidentes racistas producidos en California en 1965, sugiriendo un llamamiento de lucha más decidida contra los racistas ante la realidad de violencia que viven.
Está considerado el primer videoclip de la historia.

Ficha artistica

Director:
Santiago Alvarez
Duración:
5 min
Musica:
"Now" en la voz de Lena Horne
(subtitulada en español)
Trucaje:
D Quesada, G Herrera, J Martinez
Cámara:
Pepin Rodriguez, A Hernandez
Personajes:
Negros y Policías norteamericanos

Paloma de Oro, Festival Internacional de Leipzig, 1965.
"Para hacer el documental “Now”, Santiago Álvarez había conseguido prestadas muchas fotos de archivo... había una en que aparecía cómo los racistas quemaban a un negro ahorcado en una parrilla, y yo logré, con técnicas de animación, que la foto "echara candela de verdad", aquello fue complicado pues filmé un fuego en la mesa animación, y después la sobre impuse en la susodicha foto.... Al llevarle el material positivado a Santiago, le digo mira a ver qué te parece esto... y cuando Santiago ve la secuencia me dice "¡Pero chico, has quemado la foto de archivo que me prestaron!”
EL "DREAM TEAM" DE TRUCAJE. Por Jorge Pucheux
Datos técnicos

Ripeo del DVD "Antología de Santiago Alvarez" Vol1, Producciones Digitales ICAIC, Vedado, La Habana.
Realizado para esta publicación en CFC

Código: Seleccionar todo

Format                                   : AVI
Format/Info                              : Audio Video Interleave
File size                                : 83.4 MiB
Duration                                 : 5mn 26s
Overall bit rate                         : 2 144 Kbps

Video
ID                                       : 0
Format                                   : AVC
Format/Info                              : Advanced Video Codec
Format profile                           : High@L3.0
Format settings, CABAC                   : Yes
Format settings, ReFrames                : 4 frames
Codec ID                                 : H264
Duration                                 : 5mn 26s
Bit rate                                 : 2 000 Kbps
Width                                    : 688 pixels
Height                                   : 384 pixels
Display aspect ratio                     : 1.593
Frame rate mode                          : Variable
Frame rate                               : 29.970 fps
Color space                              : YUV
Chroma subsampling                       : 4:2:0
Bit depth                                : 8 bits
Scan type                                : Progressive
Bits/(Pixel*Frame)                       : 0.253
Stream size                              : 77.8 MiB (93%)
Writing library                          : x264 core 120 r2151 a3f4407
Encoding settings                        : cabac=1 / ref=5 / deblock=1:0:0 / analyse=0x3:0x113 / me=esa / subme=9 / psy=1 / psy_rd=1,00:0,00 / mixed_ref=1 / me_range=24 / chroma_me=1 / trellis=2 / 8x8dct=1 / cqm=0 / deadzone=21,11 / fast_pskip=1 / chroma_qp_offset=-2 / threads=3 / sliced_threads=0 / nr=0 / decimate=1 / interlaced=0 / bluray_compat=0 / constrained_intra=0 / bframes=16 / b_pyramid=1 / b_adapt=1 / b_bias=0 / direct=3 / weightb=1 / open_gop=0 / weightp=2 / keyint=250 / keyint_min=25 / scenecut=40 / intra_refresh=0 / rc_lookahead=40 / rc=2pass / mbtree=1 / bitrate=2000 / ratetol=1,0 / qcomp=0,60 / qpmin=10 / qpmax=51 / qpstep=4 / cplxblur=20,0 / qblur=0,5 / ip_ratio=1,40 / aq=1:1,00

Audio
ID                                       : 1
Format                                   : MPEG Audio
Format version                           : Version 1
Format profile                           : Layer 3
Codec ID                                 : 55
Codec ID/Hint                            : MP3
Duration                                 : 5mn 26s
Bit rate mode                            : Constant
Bit rate                                 : 128 Kbps
Channel(s)                               : 2 channels
Sampling rate                            : 48.0 KHz
Compression mode                         : Lossy
Stream size                              : 4.98 MiB (6%)
Alignment                                : Split accross interleaves
Interleave, duration                     : 24 ms (0.72 video frame)
Capturas

Imagen
Imagen
Imagen

eD2K link Now 1965 Santiago Alvarez.avi [83.37 Mb] 
Última edición por gilles el 24 Abr 2013, 16:44, editado 3 veces en total.

Avatar de Usuario
OrsonHitchcock
 
Mensajes: 389
Registrado: 17 Oct 2012, 13:17
Agradecimiento recibido: 24 veces

Re: Now (Santiago Alvarez, 1965) DVDRip

Mensaje por OrsonHitchcock » 05 Feb 2013, 22:27

Muchas gracias gilles.

ciberyago
 
Mensajes: 2302
Registrado: 20 Oct 2012, 07:26
Agradecimiento recibido: 355 veces

Re: Now (Santiago Alvarez, 1965) DVDRip

Mensaje por ciberyago » 07 Feb 2013, 06:51

Gracias Gilles!

Responder

Volver a “Documentales”