El Megano (Julio García Espinosa/Tomás Gutierrez Alea, 1955) DVDRip VO

Puntuación
Sin
puntuar

Moderador: loperena

Reglas del Foro
Norma de los tres años.
Responder
gilles
 
Mensajes: 549
Registrado: 21 Ene 2013, 11:15
Agradecido : 20 veces
Agradecimiento recibido: 233 veces

Cuba El Megano (Julio García Espinosa/Tomás Gutierrez Alea, 1955) DVDRip VO

Mensaje por gilles » 29 Ene 2013, 17:59

El Megano (Julio García Espinosa/Tomás Gutierrez Alea, 1955)

Imagen

IMDb

SINOPSIS

Es una denuncia a las infrahumanas condiciones de vida y trabajo de los carboneros de la Ciénaga de Zapata, en la Costa Sur de Cuba, antes de 1959.
Desde el punto de vista temático, está considerado como el antecedente más importante del cine cubano de la Revolución realizado posteriormente por el Instituto Cubano del Arte e Industria Cinematográficos (ICAIC), y uno de los que da origen al Movimiento del Nuevo Cine Latinoamericano.

Ficha Artística

AÑO:
1955
DURACIÓN:
25 mn
PAÍS:
Cuba
DIRECTORES:
Julio García Espinosa y Tomás Gutierrez Alea
GUIÓN:
Julio García Espinosa, Tomás Gutiérrez Alea, Alfredo Guevara, José Massip
MÚSICA:
Juan Blanco
FOTOGRAFÍA:
Jorge Haydú
REPARTO:
Habitantes de El Mégano, en la Ciénaga de Zapata: Pástor Álvarez, Cheo Lazo, Arencibia San Judas, Sibila Lazo, María Celia Lazo, Berto y Nelson Álvarez, Sixto Cruz, Eusebio Lazo. Turista: Menia Martínez
PRODUCTORA:
Laboratorio Cinematográfico CMQ
GÉNERO:
Documental

Bajo la dictadura de Batista, varias obras han sido perseguidas. Asi El Megano y Jocuma de Jose Antonio Sarol, 1955 fueran de manera simultanea confiscadas por la policía secreta. Lo mismo ocurrió con La cooperativa del hambre de Jose Antonio Sarol en 1957. Cada vez los negativos fueron cogidos y los autores amenazados físicamente.
IMDB atribuye la dirección a Julio Garcia Espinosa Y Tomas Gutierrez Alea, fnCL solo a Julio Garcia Espinosa y EcuRed a Julio Garcia Espinosa, Tomas Gutierrez Alea y Alfredo Guevarra. En el DVD editado por el ICAIC, esta escrito: "Documental cubano Direccion Julio Garcia Espinosa con la collaboracion de Tomas Gutierrez Alea"...

Datos Tecnicos:

Extra del DVD "Aventuras de Juan Quin Quin", Producciones Digitales ICAIC, Vedado, Habana, Cuba

Código: Seleccionar todo

Format                                   : AVI
Format/Info                              : Audio Video Interleave
File size                                : 244 MiB
Duration                                 : 24mn 45s
Overall bit rate mode                    : Variable
Overall bit rate                         : 1 380 Kbps
Writing application                      : MEncoder VERSION
Writing library                          : MPlayer
Original source form                     : DVD ripped by acidrip.sf.net

Video
ID                                       : 0
Format                                   : MPEG-4 Visual
Format profile                           : Advanced Simple@L5
Format settings, BVOP                    : 2
Format settings, QPel                    : No
Format settings, GMC                     : No warppoints
Format settings, Matrix                  : Default (MPEG)
Codec ID                                 : XVID
Codec ID/Hint                            : XviD
Duration                                 : 24mn 45s
Bit rate                                 : 1 243 Kbps
Width                                    : 480 pixels
Height                                   : 360 pixels
Display aspect ratio                     : 4:3
Frame rate                               : 29.970 fps
Color space                              : YUV
Chroma subsampling                       : 4:2:0
Bit depth                                : 8 bits
Scan type                                : Progressive
Compression mode                         : Lossy
Bits/(Pixel*Frame)                       : 0.240
Stream size                              : 220 MiB (90%)
Writing library                          : XviD 1.2.1 (UTC 2008-12-04)

Audio
ID                                       : 1
Format                                   : MPEG Audio
Format version                           : Version 1
Format profile                           : Layer 3
Mode                                     : Joint stereo
Mode extension                           : MS Stereo
Codec ID                                 : 55
Codec ID/Hint                            : MP3
Duration                                 : 24mn 45s
Bit rate mode                            : Variable
Bit rate                                 : 123 Kbps
Channel(s)                               : 2 channels
Sampling rate                            : 48.0 KHz
Compression mode                         : Lossy
Stream size                              : 21.7 MiB (9%)
Alignment                                : Aligned on interleaves
Interleave, duration                     : 24 ms (0.72 video frame)
Interleave, preload duration             : 484 ms
Capturas:

Imagen
Imagen
Imagen
Imagen

eD2K link El Megano 1955 Julio Garcia Espinosa Tomas Gutierrez Alea.avi [244.36 Mb] 

PD: se buscan las letras de la canción que canta la niña en el medio de la película... Gracias
Última edición por gilles el 24 Abr 2013, 16:45, editado 3 veces en total.

Avatar de Usuario
yojimbo
 
Mensajes: 10308
Registrado: 18 Oct 2012, 14:25
Agradecido : 9476 veces
Agradecimiento recibido: 2599 veces

Re: El Megano (Julio García Espinosa/Tomás Gutierrez Alea, 1955) DVDRip

Mensaje por yojimbo » 29 Ene 2013, 19:42

Interesante documental el que nos traes, gilles.

Muchas gracias.

Avatar de Usuario
arturogordopin
 
Mensajes: 185
Registrado: 20 Oct 2012, 14:58
Agradecido : 354 veces
Agradecimiento recibido: 30 veces

Re: El Megano (Julio García Espinosa/Tomás Gutierrez Alea, 1955) DVDRip VO

Mensaje por arturogordopin » 30 Ene 2013, 10:23

Muchas gracias gilles por este trabajo de García Espinosa.
Gracias a rrreeevvv y al SR. PREACHER (El otro Francisco) voy conociendo la obra como director y guionista de este cineasta cubano.
Salud.

Avatar de Usuario
sete
 
Mensajes: 4716
Registrado: 22 Dic 2012, 16:10
Agradecido : 238 veces
Agradecimiento recibido: 1469 veces

Re: El Megano (Julio García Espinosa/Tomás Gutierrez Alea, 1955) DVDRip VO

Mensaje por sete » 31 Ene 2013, 00:20

Muchas gracias, gilles.
:hi:
Este mundo está traicionando a la vida.
José Luis Sampedro

ciberyago
 
Mensajes: 2449
Registrado: 20 Oct 2012, 07:26
Agradecido : 1 vez
Agradecimiento recibido: 385 veces

Re: El Megano (Julio García Espinosa/Tomás Gutierrez Alea, 1955) DVDRip VO

Mensaje por ciberyago » 31 Ene 2013, 06:30

Gracias Gilles!

Responder

Volver a “Documentales”