The King of Kong: A fistful of quarters (Seth Gordon, 2007) DVDRip VOSE

Puntuación
Sin
puntuar

Moderador: loperena

Reglas del Foro
Norma de los tres años.
Responder
fisuras
 
Mensajes: 12
Registrado: 22 Ene 2013, 12:14

Estados Unidos The King of Kong: A fistful of quarters (Seth Gordon, 2007) DVDRip VOSE

Mensaje por fisuras » 22 Ene 2013, 21:08

The King of Kong: A fistful of quarters (Seth Gordon, 2007)

Imagen

http://www.imdb.com/title/tt0923752/

Sinopsis

Un maestro de escuela secundaria y un empresario se enfrentan para romper el Récord Guiness del clásico videojuego Donkey Kong.

AÑO 2007
DURACIÓN 83 min.
PAÍS Estados Unidos
DIRECTOR Seth Gordon
GUIÓN Seth Gordon
MÚSICA Craig Richey
FOTOGRAFÍA Seth Gordon
REPARTO Steve Wiebe, Billy Mitchell
PRODUCTORA New Line Cinema
GÉNERO Documental | Videojuego

El documental lo descargué hace tiempo y no recuerdo exactamente de dónde, creo que es de algún torrent, pero ni idea del autor. Los subtítulos venían con el archivo original, pero están corregidos por mí (estaban mal todos los signos de puntuación, no tenía eñes, ninguna tilde, y varias faltas de ortografía, que espero hayan quedado corregidas).

Lo interesante en este trabajo no es quién acabe obteniendo el récord del mundo en un videojuego concreto ni la puntuación que conseguirá. Aquí lo que importa son las personalidades de los protagonistas, y el reflejo que se hace de la ambición, el servilismo, la entrega máxima, el darlo todo por algo. Me recordó un poco, salvando las distancias, a El desencanto, de Jaime Chávarri, por las intenciones del director, mayormente.

Detalles del ripeo

Código: Seleccionar todo

General 
Complete name : C:\Users\ramon\Desktop\Carpetas Escritorio\Downloads\eMule\Incoming\The King of Kong(2007)\The King of Kong(2007).avi 
Format : AVI 
Format/Info : Audio Video Interleave 
File size : 700 MiB 
Duration : 1h 23mn 
Overall bit rate mode : Variable 
Overall bit rate : 1 176 Kbps 
Writing application : VirtualDubMod 1.5.10.2 (build 2540/release) 
Writing library : VirtualDubMod build 2540/release 

Video 
ID : 0 
Format : MPEG-4 Visual 
Format profile : Advanced Simple@L5 
Format settings, BVOP : 1 
Format settings, QPel : No 
Format settings, GMC : No warppoints 
Format settings, Matrix : Default (MPEG) 
Muxing mode : Packed bitstream 
Codec ID : XVID 
Codec ID/Hint : XviD 
Duration : 1h 23mn 
Bit rate : 1 023 Kbps 
Width : 592 pixels 
Height : 320 pixels 
Display aspect ratio : 1.85:1 
Frame rate : 23.976 fps 
Color space : YUV 
Chroma subsampling : 4:2:0 
Bit depth : 8 bits 
Scan type : Progressive 
Compression mode : Lossy 
Bits/(Pixel*Frame) : 0.225 
Stream size : 609 MiB (87%) 
Writing library : XviD 1.1.2 (UTC 2006-11-01) 

Audio 
ID : 1 
Format : MPEG Audio 
Format version : Version 1 
Format profile : Layer 3 
Mode : Joint stereo 
Mode extension : MS Stereo 
Codec ID : 55 
Codec ID/Hint : MP3 
Duration : 1h 23mn 
Bit rate mode : Variable 
Bit rate : 139 Kbps 
Minimum bit rate : 128 Kbps 
Channel(s) : 2 channels 
Sampling rate : 48.0 KHz 
Compression mode : Lossy 
Stream size : 83.0 MiB (12%) 
Alignment : Aligned on interleaves 
Interleave, duration : 24 ms (0.58 video frame) 
Interleave, preload duration : 132 ms 
Writing library : LAME3.97  
Encoding settings : -m j -V 2 -q 3 -lowpass 18.6 --vbr-new -b 128 

Capturas


Imagen


Imagen


Imagen

Enlace a eMule

eD2K link The King of Kong(2007).rar [692.36 Mb] 

Enlace para los subtítulos

eD2K link The King of Kong-Spanish.txt [123.4 Kb] 
Última edición por fisuras el 23 Ene 2013, 11:01, editado 1 vez en total.

Avatar de Usuario
Bunker
 
Mensajes: 5198
Registrado: 03 Oct 2012, 00:05
Agradecido : 3 veces
Agradecimiento recibido: 1342 veces

Re: The King of Kong: A fistful of quarters (Seth Gordon, 2007) DVDRip VOSE

Mensaje por Bunker » 22 Ene 2013, 23:35

Muchas gracias por colaborar fisuras, tu primera ficha y ha quedado impecable. :genial:
Una duda, ¿los subs están incrustados o se te olvidó el enlace?

Un saludo :hi:

fisuras
 
Mensajes: 12
Registrado: 22 Ene 2013, 12:14

Re: The King of Kong: A fistful of quarters (Seth Gordon, 2007) DVDRip VOSE

Mensaje por fisuras » 22 Ene 2013, 23:50

De nada!! Un placer. Me he sentido en deuda al encontrar la de pinocho, pues no resulta sencillo localizarla. Siempre que pueda aportar algo interesante, trataré de hacerlo.

No me he acordado de mencionarlo, perdón. El archivo es .rar y contiene una carpeta con el archivo de vídeo y un .txt con los subtítulos.

Probaré lo que me comentabas para las capturas.


Saludos!!

Avatar de Usuario
Bunker
 
Mensajes: 5198
Registrado: 03 Oct 2012, 00:05
Agradecido : 3 veces
Agradecimiento recibido: 1342 veces

Re: The King of Kong: A fistful of quarters (Seth Gordon, 2007) DVDRip VOSE

Mensaje por Bunker » 23 Ene 2013, 00:25

fisuras escribió:El archivo es .rar y contiene una carpeta con el archivo de vídeo y un .txt con los subtítulos.
Saludos!!
No había reparado. Gracias ;)

Edito: igual interesa que pongas por separado los subtítulos. Habrá personas que hayan bajado el archivo de otro sitio (como es mi caso) y solo tengan interés en los subtítulos (ya que los ha corregido). Gracias.

fisuras
 
Mensajes: 12
Registrado: 22 Ene 2013, 12:14

Re: The King of Kong: A fistful of quarters (Seth Gordon, 2007) DVDRip VOSE

Mensaje por fisuras » 23 Ene 2013, 11:03

Bunker escribió:Edito: igual interesa que pongas por separado los subtítulos. Habrá personas que hayan bajado el archivo de otro sitio (como es mi caso) y solo tengan interés en los subtítulos (ya que los ha corregido). Gracias.
Pues no había caído en hacerlo así, mucho más práctico ;)

Ya está arreglado!!

Responder

Volver a “Documentales”