Página 1 de 2

Aru eiga-kantoku no shogai (Kaneto Shindô, 1975) BDRip 1080p VOSE

Publicado: 04 Feb 2019, 20:47
por yogiyamada
Kenji Mizoguchi, la vida de un cineasta
Imagen

Imagen

SINOPSIS

Documental que repasa la vida y obra del realizador japonés Kenji Mizoguchi, utilizando para ello fragmentos de sus películas, entrevistas y otro tipo de información. (FILMAFFINTY)

FICHA ARTÍSTICA

Año
1975
Duración
150 min.
País
Japón
Dirección
Kaneto Shindô
Guion
Kaneto Shindô
Fotografía
Yoshiyuki Miyaké
Productora
Kindai Eiga Kyokai

Reparto
Takako Irie, Daisuke Itô, Kyôko Kagawa, Matsutarô Kawaguchi, Michiyo Kogure, Nobuko Otowa.

COMENTARIOS

Aquí está el documental que venía de yapa en el bluray de Ugetsu bajado de Tik. Los subtítulos los encontré en Allzine y son de ambrosia_berza, DivX Clásico, ajustados por mí para este ripeo.


DATOS TÉCNICOS

Código: Seleccionar todo

Format                      : MPEG-4
Format profile              : Base Media
Codec ID                    : isom (isom)
File size                   : 2.83 GiB
Duration                    : 2 h 29 min
Overall bit rate            : 2 699 kb/s
Encoded date                : UTC 2019-02-03 00:01:42
Tagged date                 : UTC 2019-02-03 00:01:42

Video
ID                          : 1
Format                      : AVC
Format/Info                 : Advanced Video Codec
Format profile              : High@L4.1
Format settings             : CABAC / 4 Ref Frames
Format settings, CABAC      : Yes
Format settings, ReFrames   : 4 frames
Codec ID                    : avc1
Codec ID/Info               : Advanced Video Coding
Duration                    : 2 h 29 min
Bit rate                    : 2 499 kb/s
Maximum bit rate            : 9 734 kb/s
Width                       : 1 456 pixels
Height                      : 1 080 pixels
Display aspect ratio        : 4:3
Frame rate mode             : Constant
Frame rate                  : 23.976 (24000/1001) FPS
Color space                 : YUV
Chroma subsampling          : 4:2:0
Bit depth                   : 8 bits
Scan type                   : Progressive
Bits/(Pixel*Frame)          : 0.066
Stream size                 : 2.62 GiB (93%)
Writing library             : x264 core 155 r2901 7d0ff22
Encoding settings           : cabac=1 / ref=4 / deblock=1:0:0 / analyse=0x3:0x133 / me=hex / subme=7 / psy=1 / psy_rd=1.00:0.15 / mixed_ref=1 / me_range=16 / chroma_me=1 / trellis=2 / 8x8dct=1 / cqm=0 / deadzone=21,11 / fast_pskip=0 / chroma_qp_offset=-3 / threads=4 / lookahead_threads=1 / sliced_threads=0 / nr=0 / decimate=1 / interlaced=0 / bluray_compat=0 / constrained_intra=0 / bframes=5 / b_pyramid=2 / b_adapt=2 / b_bias=0 / direct=1 / weightb=1 / open_gop=0 / weightp=2 / keyint=240 / keyint_min=23 / scenecut=40 / intra_refresh=0 / rc_lookahead=60 / rc=abr / mbtree=1 / bitrate=2499 / ratetol=1.0 / qcomp=0.60 / qpmin=0 / qpmax=69 / qpstep=4 / ip_ratio=1.40 / aq=1:1.00
Encoded date                : UTC 2019-02-02 22:59:08
Tagged date                 : UTC 2019-02-03 00:04:37

Audio
ID                          : 2
Format                      : AC-3
Format/Info                 : Audio Coding 3
Codec ID                    : ac-3
Duration                    : 2 h 29 min
Bit rate mode               : Constant
Bit rate                    : 192 kb/s
Maximum bit rate            : 203 kb/s
Channel(s)                  : 1 channel
Channel positions           : Front: C
Sampling rate               : 48.0 kHz
Frame rate                  : 31.250 FPS (1536 SPF)
Bit depth                   : 16 bits
Compression mode            : Lossy
Stream size                 : 206 MiB (7%)
Language                    : Japanese
Service kind                : Complete Main
Encoded date                : UTC 2019-02-03 00:04:24
Tagged date                 : UTC 2019-02-03 00:04:37



CAPTURAS

Imagen
Imagen
Imagen
Imagen
eD2K link Aru eiga-kantoku no shogai.mp4 [2.83 Gb] 

Subtítulos en español (Traducción: ambrosia_berza, DivX Clásico)
eD2K link Aru eiga-kantoku no shogai.srt [133.7 Kb] 

Re: Aru eiga-kantoku no shogai (Kaneto Shindô, 1975) BDRip 1080p VOSE

Publicado: 04 Feb 2019, 21:09
por Prudencio
Muchas gracias, yogiyamada y ambrosia_berza. :hi:

Re: Aru eiga-kantoku no shogai (Kaneto Shindô, 1975) BDRip 1080p VOSE

Publicado: 04 Feb 2019, 21:15
por yogiyamada
Prudencio escribió:
04 Feb 2019, 21:09
Muchas gracias, yogiyamada y ambrosia_berza. :hi:

De nada, que la disfrutéis.

Re: Aru eiga-kantoku no shogai (Kaneto Shindô, 1975) BDRip 1080p VOSE

Publicado: 04 Feb 2019, 21:45
por Monsieur Lange
Muchas gracias yogiyamada y ambrosia_berza por la peli y los subtis. Tenía una copia más antigua, así que aprovecho para renovae. :hi: :hi:

Re: Aru eiga-kantoku no shogai (Kaneto Shindô, 1975) BDRip 1080p VOSE

Publicado: 04 Feb 2019, 21:51
por yogiyamada
Monsieur Lange escribió:
04 Feb 2019, 21:45
Muchas gracias yogiyamada y ambrosia_berza por la peli y los subtis. Tenía una copia más antigua, así que aprovecho para renovae. :hi: :hi:
De nada Monsieur...

Re: Aru eiga-kantoku no shogai (Kaneto Shindô, 1975) BDRip 1080p VOSE

Publicado: 04 Feb 2019, 22:09
por jail
Gracias, yogiyamada y ambrosia_berza.
Se agradece el srt, yogi.
De momento, hasta que mire una versión rar más actual. O pasarme al 7z, que aún es mejor. :)

Re: Aru eiga-kantoku no shogai (Kaneto Shindô, 1975) BDRip 1080p VOSE

Publicado: 04 Feb 2019, 22:31
por yogiyamada
jail escribió:
04 Feb 2019, 22:09
Gracias, yogiyamada y ambrosia_berza.
Se agradece el srt, yogi.
De momento, hasta que mire una versión rar más actual. O pasarme al 7z, que aún es mejor. :)
de nada y claro, lo dejé en la mula para los que no tengan actualizado el rar....

Re: Aru eiga-kantoku no shogai (Kaneto Shindô, 1975) BDRip 1080p VOSE

Publicado: 05 Feb 2019, 00:28
por Bigford
Agradecidísimo por esta estupenda aportación

Re: Aru eiga-kantoku no shogai (Kaneto Shindô, 1975) BDRip 1080p VOSE

Publicado: 05 Feb 2019, 03:33
por yogiyamada
Bigford escribió:
05 Feb 2019, 00:28
Agradecidísimo por esta estupenda aportación
De nada, qué tengas buen cine.

Re: Aru eiga-kantoku no shogai (Kaneto Shindô, 1975) BDRip 1080p VOSE

Publicado: 05 Feb 2019, 05:41
por ciberyago
Muchas gracias!