La revolución acabó en mayo (Mikel Muñoz, 2015) WebRip VOSF

Puntuación
Sin
puntuar

Moderador: loperena

Reglas del Foro
Norma de los tres años.
Responder
gilles
 
Mensajes: 540
Registrado: 21 Ene 2013, 11:15
Agradecido : 32 veces
Agradecimiento recibido: 268 veces

España La revolución acabó en mayo (Mikel Muñoz, 2015) WebRip VOSF

Mensaje por gilles » 16 Dic 2017, 15:06

La revolución acabó en mayo (Mikel Muñoz, 2015)
Imagen

Sinopsis:
Primavera de 1937, la Guerra Civil española se encuentra en pleno apogeo. El ejército republicano y las milicias de partidos y sindicatos luchan contra las tropas franquistas. A cientos de kilómetros, en la retaguardia, el gobierno asalta el edificio de la Telefónica en Barcelona, gestionado por la CNT. Los anarquistas resisten, estalla la huelga general: comienza una guerra civil dentro de la Guerra Civil. Cinco días que sellan el epitafio de la revolución.

Año: 2015
Duración: 80 minutos
Autor: Mikel Muñoz
Licencia: Creative Commons


Datos tecnicos:
Spoiler:
Format : MPEG-4
Format profile : Base Media
Codec ID : isom (isom/iso2/avc1/mp41)
File size : 1.75 GiB
Duration : 1h 20mn
Overall bit rate : 3 134 Kbps
Encoded date : UTC 1904-01-01 00:00:00
Tagged date : UTC 1904-01-01 00:00:00
Writing application : Lavf57.71.100

Video
ID : 1
Format : AVC
Format/Info : Advanced Video Codec
Format profile : High@L3.2
Format settings, CABAC : Yes
Format settings, ReFrames : 4 frames
Codec ID : avc1
Codec ID/Info : Advanced Video Coding
Duration : 1h 19mn
Bit rate : 2 997 Kbps
Width : 1 280 pixels
Height : 970 pixels
Display aspect ratio : 4:3
Frame rate mode : Variable
Frame rate : 23.976 (23976/1000) fps
Minimum frame rate : 11.991 fps
Maximum frame rate : 23.981 fps
Color space : YUV
Chroma subsampling : 4:2:0
Bit depth : 8 bits
Scan type : Progressive
Bits/(Pixel*Frame) : 0.101
Stream size : 1.67 GiB (96%)
Writing library : x264 core 146 r2555 0c21480
Encoding settings : cabac=1 / ref=3 / deblock=1:0:0 / analyse=0x3:0x133 / me=hex / subme=7 / psy=1 / psy_rd=1.00:0.00 / mixed_ref=1 / me_range=16 / chroma_me=1 / trellis=1 / 8x8dct=1 / cqm=0 / deadzone=21,11 / fast_pskip=1 / chroma_qp_offset=-2 / threads=3 / lookahead_threads=1 / sliced_threads=0 / nr=0 / decimate=1 / interlaced=0 / bluray_compat=0 / constrained_intra=0 / bframes=3 / b_pyramid=2 / b_adapt=1 / b_bias=0 / direct=1 / weightb=1 / open_gop=0 / weightp=2 / keyint=250 / keyint_min=25 / scenecut=40 / intra_refresh=0 / rc_lookahead=40 / rc=crf / mbtree=1 / crf=20.0 / qcomp=0.60 / qpmin=10 / qpmax=51 / qpstep=4 / ip_ratio=1.40 / aq=1:1.00
Encoded date : UTC 1904-01-01 00:00:00
Tagged date : UTC 1904-01-01 00:00:00

Audio
ID : 2
Format : AAC
Format/Info : Advanced Audio Codec
Format profile : LC
Codec ID : 40
Duration : 1h 20mn
Bit rate mode : Constant
Bit rate : 129 Kbps
Channel(s) : 2 channels
Channel positions : Front: L R
Sampling rate : 48.0 KHz
Frame rate : 46.875 fps (1024 spf)
Compression mode : Lossy
Stream size : 73.8 MiB (4%)
Language : unk
Default : Yes
Alternate group : 1
Encoded date : UTC 1904-01-01 00:00:00
Tagged date : UTC 1904-01-01 00:00:00
Imagen Imagen Imagen
Imagen Imagen Imagen
Imagen

Aunque de 2015, siendo "Creative Commons" y publicado ya en Youtube, dejo a la moderación la decisión sobre la regla de los tres años...


Enlace hacia la versión original con subtítulos en francés incrustados:

eD2K link La Revolucion Acabo en Mayo.mp4 [1.75 Gb] 

Avatar de Usuario
Bunker
 
Mensajes: 5198
Registrado: 03 Oct 2012, 00:05
Agradecido : 3 veces
Agradecimiento recibido: 1342 veces

Re: La revolución acabó en mayo (Mikel Muñoz, 2015) Web VO sub fr incrustados

Mensaje por Bunker » 16 Dic 2017, 15:15

Muchas gracias, gilles.

jail
 
Mensajes: 6264
Registrado: 18 Oct 2012, 15:34
Agradecido : 6856 veces
Agradecimiento recibido: 1977 veces

Re: La revolución acabó en mayo (Mikel Muñoz, 2015) WebRip VOSF

Mensaje por jail » 16 Dic 2017, 16:26

Gracias, gilles.

Avatar de Usuario
gatatitania
 
Mensajes: 4566
Registrado: 16 Oct 2012, 18:27
Ubicación: Gatatitania es un gato hambriento, superviviente del planeta gatatitania...
Agradecido : 2398 veces
Agradecimiento recibido: 1351 veces

Re: La revolución acabó en mayo (Mikel Muñoz, 2015) WebRip VOSF

Mensaje por gatatitania » 16 Dic 2017, 17:36

¡Gracias, Gilles! :aplauso: :aplauso: :aplauso:

Avatar de Usuario
sete
 
Mensajes: 4322
Registrado: 22 Dic 2012, 16:10
Agradecido : 197 veces
Agradecimiento recibido: 1269 veces

Re: La revolución acabó en mayo (Mikel Muñoz, 2015) WebRip VOSF

Mensaje por sete » 16 Dic 2017, 19:11

Muchas gracias, gilles.
:hi:
Este mundo está traicionando a la vida.
José Luis Sampedro

Avatar de Usuario
Jon Olarticoetxea
 
Mensajes: 475
Registrado: 18 Jun 2014, 20:14
Agradecido : 456 veces
Agradecimiento recibido: 94 veces

Re: La revolución acabó en mayo (Mikel Muñoz, 2015) WebRip VOSF

Mensaje por Jon Olarticoetxea » 16 Dic 2017, 23:50

Impagable, gilles.
Resiste mucho, obedece poco.

Walt Whitman

Avatar de Usuario
droid
 
Mensajes: 8141
Registrado: 12 Sep 2012, 03:37
Agradecido : 4644 veces
Agradecimiento recibido: 7006 veces

Re: La revolución acabó en mayo (Mikel Muñoz, 2015) WebRip VOSF

Mensaje por droid » 17 Dic 2017, 07:36

gilles escribió:[...]Aunque de 2015, siendo "Creative Commons" y publicado ya en Youtube, dejo a la moderación la decisión sobre la regla de los tres años...
Normas de los 3 años escribió:[...]Como en las normas de televisión, lógicamente, cuando se traten de capturas directas de la televisión de documentales hechos y distribuidos por y para la televisión, siempre y cuando respeten las características arriba reseñadas, no se aplicará la norma de los tres años, dada la difusión pública y masiva que conlleva el medio televisivo y la posibilidad de grabar y guardar dicha emisión por quienes así lo deseen.
Así que en este caso concreto queda exenta la norma de los 3 años. Muchas gracias por el aporte, Gilles. :genial: :aplauso:

Un saludo. :hi:

EDITO: por cierto, hay un interesante artículo titulado "¿Es viable el anarquismo en la actualidad?" publicado aquí: http://lapeste.org/2015/03/es-viable-el ... ctualidad/

Avatar de Usuario
yojimbo
 
Mensajes: 9225
Registrado: 18 Oct 2012, 14:25
Agradecido : 9231 veces
Agradecimiento recibido: 2319 veces

Re: La revolución acabó en mayo (Mikel Muñoz, 2015) WebRip VOSF

Mensaje por yojimbo » 17 Dic 2017, 15:39

Muchas gracias, gilles.

Avatar de Usuario
Voltaire
 
Mensajes: 150
Registrado: 20 Nov 2017, 18:40
Ubicación: Siglo XVIII
Agradecimiento recibido: 34 veces

Re: La revolución acabó en mayo (Mikel Muñoz, 2015) WebRip VOSF

Mensaje por Voltaire » 18 Dic 2017, 01:54

Todavía hay quien niega que fue una guerra a tres bandas, monsieur. En opinión de éste que os habla fueron Hitler y Stalin quienes la ganaron para Franco.

Responder

Volver a “Documentales”