Hype! (Doug Pray, 1996) BDRip 720p VOSE

Puntuación
Sin
puntuar

Moderador: loperena

Reglas del Foro
Norma de los tres años.
Responder
Avatar de Usuario
DMMD
 
Mensajes: 554
Registrado: 16 Oct 2012, 15:35
Agradecido : 287 veces
Agradecimiento recibido: 2125 veces

Estados Unidos Hype! (Doug Pray, 1996) BDRip 720p VOSE

Mensaje por DMMD » 02 Nov 2017, 11:55

Hype!

(Doug Pray, 1996)




Imagen

Imagen



Hype!


Año 1996
Duración 83 min.
País Imagen
Director Doug Pray
Guion Doug Pray
Música Nirvana, Soundgarden, Mudhoney, The Melvins, 7 Year Bitch, Seaweed, Screaming Trees, Tad, The Fastbacks
Fotografía Charles Peterson
Reparto Documentary
Productora Helvey-Pray Productions
Género Documental | Documental sobre música
Sinopsis
A través de entrevistas con bandas locales, expertos y público, actuaciones en directo e imágenes de archivo de distintas televisiones, trata de explicar la formación, consolidación a impacto social del fenómeno musical denominado “movimiento grunge” originado en Seattle (Washington, EEUU) a partir de finales de la década de los 80. (FILMAFFINITY)

Premios
1996: Festival de Sundance: Nominado al Gran Premio del Jurado - Documental
1997: Satellite Awards: Nominado a Mejor documental



[code]General
Unique ID : 231013168300412366827454959514459502952 (0xADCB849103D6C6DAB2875D019B56F968)
Complete name : D:\Incoming\1996-Hype!.BR.x264.720p.AC3[DMMD].mkv
Format : Matroska
Format version : Version 4 / Version 2
File size : 3.50 GiB
Duration : 1 h 22 min
Overall bit rate : 6 058 kb/s
Encoded date : UTC 2017-11-02 10:27:01
Writing application : mkvmerge v17.0.0 ('Be Ur Friend') 64-bit
Writing library : libebml v1.3.5 + libmatroska v1.4.8
Attachments : 1

Video
ID : 1
Format : AVC
Format/Info : Advanced Video Codec
Format profile : High@L4.1
Format settings : CABAC / 9 Ref Frames
Format settings, CABAC : Yes
Format settings, RefFrames : 9 frames
Codec ID : V_MPEG4/ISO/AVC
Duration : 1 h 22 min
Bit rate : 5 385 kb/s
Width : 1 280 pixels
Height : 720 pixels
Display aspect ratio : 16:9
Frame rate mode : Constant
Frame rate : 23.976 (24000/1001) FPS
Color space : YUV
Chroma subsampling : 4:2:0
Bit depth : 8 bits
Scan type : Progressive
Bits/(Pixel*Frame) : 0.244
Stream size : 3.12 GiB (89%)
Writing library : x264 core 152 r2851kMod ba24899
Encoding settings : cabac=1 / ref=9 / deblock=1:-3:-3 / analyse=0x3:0x133 / me=umh / subme=11 / psy=1 / fade_compensate=0.00 / psy_rd=1.00:0.00 / mixed_ref=1 / me_range=24 / chroma_me=1 / trellis=2 / 8x8dct=1 / cqm=0 / deadzone=21,11 / fast_pskip=0 / chroma_qp_offset=-2 / threads=6 / lookahead_threads=1 / sliced_threads=0 / nr=0 / decimate=0 / interlaced=0 / bluray_compat=0 / constrained_intra=0 / bframes=8 / b_pyramid=2 / b_adapt=2 / b_bias=0 / direct=3 / weightb=1 / open_gop=0 / weightp=2 / keyint=250 / keyint_min=23 / scenecut=40 / intra_refresh=0 / rc=crf / mbtree=0 / crf=19.0000 / qcomp=0.60 / qpmin=0 / qpmax=69 / qpstep=4 / ip_ratio=1.40 / pb_ratio=1.30 / aq=3:0.70
Language : English
Default : Yes
Forced : No

Audio
ID : 2
Format : AC-3
Format/Info : Audio Coding 3
Format settings, Endianness : Big
Codec ID : A_AC3
Duration : 1 h 22 min
Bit rate mode : Constant
Bit rate : 640 kb/s
Channel(s) : 6 channels
Channel positions : Front: L C R, Side: L R, LFE
Sampling rate : 48.0 kHz
Frame rate : 31.250 FPS (1536 SPF)
Bit depth : 16 bits
Compression mode : Lossy
Stream size : 379 MiB (11%)
Language : English
Service kind : Complete Main
Default : Yes
Forced : No

Text #1
ID : 3
Format : UTF-8
Codec ID : S_TEXT/UTF8
Codec ID/Info : UTF-8 Plain Text
Duration : 1 h 22 min
Bit rate : 93 b/s
Count of elements : 1520
Stream size : 56.4 KiB (0%)
Language : Spanish
Default : Yes
Forced : No

Text #2
ID : 4
Format : UTF-8
Codec ID : S_TEXT/UTF8
Codec ID/Info : UTF-8 Plain Text
Duration : 1 h 22 min
Bit rate : 93 b/s
Count of elements : 1399
Stream size : 56.3 KiB (0%)
Language : English
Default : No
Forced : No

Text #3
ID : 5
Format : PGS
Muxing mode : zlib
Codec ID : S_HDMV/PGS
Codec ID/Info : Picture based subtitle format used on BDs/HD-DVDs
Duration : 1 h 22 min
Bit rate : 52.3 kb/s
Count of elements : 2789
Stream size : 30.7 MiB (1%)
Language : English
Default : No
Forced : No

Menu
00:00:00.000 : en:00:00:00.000
00:06:40.650 : en:00:06:40.650
00:11:05.373 : en:00:11:05.373
00:13:24.804 : en:00:13:24.804
00:18:05.584 : en:00:18:05.584
00:21:02.845 : en:00:21:02.845
00:26:08.984 : en:00:26:08.984
00:32:34.661 : en:00:32:34.661
00:36:40.698 : en:00:36:40.698
00:39:32.704 : en:00:39:32.704
00:46:40.339 : en:00:46:40.339
00:50:43.666 : en:00:50:43.666
00:57:51.760 : en:00:57:51.760
01:02:47.764 : en:01:02:47.764
01:10:23.052 : en:01:10:23.052
01:17:53.043 : en:01:17:53.043

[/code]

Encode a partir del bluray de Shout Factory

CAPTURAS

Imagen
Imagen
Imagen
Imagen
Imagen
Imagen
Imagen



Enlaces de descarga

Imagen


eD2K link 1996-Hype!.BR.x264.720p.AC3[DMMD].mkv [3.50 Gb] 

Avatar de Usuario
Bunker
 
Mensajes: 5109
Registrado: 03 Oct 2012, 00:05
Agradecido : 3 veces
Agradecimiento recibido: 1266 veces

Re: Hype! (Doug Pray, 1996) BDRip 720p VOSE

Mensaje por Bunker » 02 Nov 2017, 11:59

Muchas gracias, DMMD.

Avatar de Usuario
yojimbo
 
Mensajes: 7442
Registrado: 18 Oct 2012, 14:25
Agradecido : 6881 veces
Agradecimiento recibido: 1419 veces

Re: Hype! (Doug Pray, 1996) BDRip 720p VOSE

Mensaje por yojimbo » 02 Nov 2017, 14:45

Muchas gracias, DMMD.

Avatar de Usuario
tonapar1
 
Mensajes: 3015
Registrado: 16 Oct 2012, 20:19
Agradecido : 673 veces
Agradecimiento recibido: 603 veces

Re: Hype! (Doug Pray, 1996) BDRip 720p VOSE

Mensaje por tonapar1 » 06 Nov 2017, 07:35

Muchas gracias por el ripeo a dmmd. Un saludo.

Responder

Volver a “Documentales”