Souvenir (José Luis Guerín, 1986) BRRip VOSJap

Puntuación
Sin
puntuar

Moderador: loperena

Reglas del Foro
Norma de los tres años.
Responder
Avatar de Usuario
DCINE
 
Mensajes: 1338
Registrado: 30 Jul 2016, 20:09
Agradecido : 831 veces
Agradecimiento recibido: 2261 veces

España Souvenir (José Luis Guerín, 1986) BRRip VOSJap

Mensaje por DCINE » 24 Jun 2017, 11:41

Souvenir
1986

Imagen


DIRECTOR: José Luis Guerín
GUIÓN: José Luis Guerín



ARGUMENTO "Blancas nubecillas pasaban tras Notre-Dame en un viejo film de Jean Renoir. Y yo me digo, así es que esas nubecillas cruzaron por ahí hace más de 50 años." (FILMAFFINITY) IMDB: http://www.imdb.com/title/tt3162714/



Datos Técnicos:

[code]General:

Complete name : 1986 Souvenir (José Luis Guerín, 1986) BRRip VOSJap by Ave Fenix (patiodebutacas.org).mkv
Format : Matroska
Format version : Version 4 / Version 2
File size : 84.2 MiB
Duration : 5mn 5s
Overall bit rate : 2 312 Kbps
Encoded date : UTC 2014-10-05 14:16:36
Writing application : mkvmerge v7.1.0 ('Good Love') 64bit built on Jul 27 2014 13:06:55
Writing library : libebml v1.3.0 + libmatroska v1.4.1
_STATISTICS_WRITING_APP : mkvmerge v7.1.0 ('Good Love') 64bit built on Jul 27 2014 13:06:55
_STATISTICS_WRITING_DATE_UTC : 2014-10-05 14:16:36
_STATISTICS_TAGS : BPS DURATION NUMBER_OF_FRAMES NUMBER_OF_BYTES
DURATION : 00:04:59.466000000
NUMBER_OF_FRAMES : 52
NUMBER_OF_BYTES : 141592

Video
ID : 1
Format : AVC
Format/Info : Advanced Video Codec
Format profile : High@L4.1
Format settings, CABAC : Yes
Format settings, ReFrames : 8 frames
Codec ID : V_MPEG4/ISO/AVC
Duration : 5mn 5s
Bit rate : 1 850 Kbps
Width : 684 pixels
Height : 476 pixels
Display aspect ratio : 1.437
Frame rate : 23.976 fps
Color space : YUV
Chroma subsampling : 4:2:0
Bit depth : 8 bits
Scan type : Progressive
Bits/(Pixel*Frame) : 0.237
Stream size : 66.2 MiB (79%)
Writing library : x264 core 142 r2479 dd79a61
Encoding settings : cabac=1 / ref=8 / deblock=1:0:0 / analyse=0x3:0x133 / me=umh / subme=9 / psy=1 / psy_rd=1.00:0.15 / mixed_ref=1 / me_range=16 / chroma_me=1 / trellis=2 / 8x8dct=1 / cqm=0 / deadzone=21,11 / fast_pskip=1 / chroma_qp_offset=-3 / threads=12 / lookahead_threads=1 / sliced_threads=0 / nr=0 / decimate=0 / interlaced=0 / bluray_compat=0 / constrained_intra=0 / bframes=3 / b_pyramid=2 / b_adapt=2 / b_bias=0 / direct=3 / weightb=1 / open_gop=0 / weightp=2 / keyint=240 / keyint_min=23 / scenecut=40 / intra_refresh=0 / rc_lookahead=60 / rc=2pass / mbtree=1 / bitrate=1850 / ratetol=3.0 / qcomp=0.60 / qpmin=0 / qpmax=69 / qpstep=4 / cplxblur=20.0 / qblur=0.5 / vbv_maxrate=62500 / vbv_bufsize=78125 / nal_hrd=none / filler=0 / ip_ratio=1.40 / aq=1:1.00
Default : Yes
Forced : No

Audio
ID : 2
Format : AC-3
Format/Info : Audio Coding 3
Mode extension : CM (complete main)
Codec ID : A_AC3
Duration : 5mn 5s
Bit rate mode : Constant
Bit rate : 448 Kbps
Channel(s) : 2 channels
Channel positions : Front: L R
Sampling rate : 48.0 KHz
Bit depth : 16 bits
Compression mode : Lossy
Stream size : 16.3 MiB (19%)
Default : Yes
Forced : No

Text
ID : 3
Format : PGS
Muxing mode : zlib
Codec ID : S_HDMV/PGS
Codec ID/Info : The same subtitle format used on BDs/HD-DVDs
Language : Japanese
Default : No
Forced : No


[/code]




Capturas:

Imagen
Imagen
Imagen
Imagen

Enlace: (Gracias a Ave Fenix en PdB)

eD2K link 1986 Souvenir (José Luis Guerín, 1986) BRRip VOSJap by Ave Fenix (patiodebutacas.org).mkv [84.22 Mb] 

DD: https://dfiles.eu/files/zpmaz7srv

Avatar de Usuario
gatatitania
 
Mensajes: 3769
Registrado: 16 Oct 2012, 18:27
Ubicación: Gatatitania es un gato hambriento, superviviente del planeta gatatitania...
Agradecido : 2022 veces
Agradecimiento recibido: 872 veces

Re: Souvenir (José Luis Guerín, 1986) BRRip VOSJap

Mensaje por gatatitania » 25 Jun 2017, 12:45

¡Gracias, DCINE! :aplauso: :aplauso: :aplauso:

Responder

Volver a “Documentales”