La naissance de Charlot (Serge Bromberg, Eric Lange, 2013) SATRip Dual

Puntuación
Sin
puntuar

El nacimiento de Charlot

Moderador: loperena

Reglas del Foro
Norma de los tres años.
Responder
Avatar de Usuario
DCINE
 
Mensajes: 1582
Registrado: 30 Jul 2016, 20:09
Agradecido : 876 veces
Agradecimiento recibido: 3057 veces

Francia La naissance de Charlot (Serge Bromberg, Eric Lange, 2013) SATRip Dual

Mensaje por DCINE » 27 Dic 2016, 10:04

La naissance de Charlot (El nacimiento de Charlot)
2013

Imagen

Imagen


DIRECTOR: Serge Bromberg, Eric Lange
PRODUCTORA: Steamboat Films / Lobster Films / Arte France / Roy Export S.A.S.



ARGUMENTO En febrero de 2014 se cumplen 100 años desde la aparición por vez primera, en el corto "Kid Auto Races at Venice", del personaje de Charlot en la pantalla grande. Este documental con imágenes de archivo repasa los orígenes y dura infancia de Chaplin y sus inicios en el mundo del espectáculo del music-hall en Inglaterra, su llegada a América de la mano de Mack Sennett en la compañía Keystone, la creación de su personaje del vagabundo y sus primeros cortometrajes como director para la Mutual. (FILMAFFINITY) IMDB: http://www.imdb.com/title/tt4069220/




Datos Técnicos:

Código: Seleccionar todo

General:


Complete name                    : 2013 El nacimiento de Charlot (La naissance de Charlot) (Serge Bromberg, Eric Lange, 2013) SATRip dual by DCINE.mkv
Format                           : Matroska
Format version                   : Version 2
File size                        : 1.17 GiB
Duration                         : 1h 0mn
Overall bit rate                 : 2 768 Kbps
Writing application              : Lavf54.63.104
Writing library                  : Lavf54.63.104

Video
ID                               : 1
Format                           : AVC
Format/Info                      : Advanced Video Codec
Format profile                   : High@L3.1
Format settings, CABAC           : Yes
Format settings, ReFrames        : 4 frames
Codec ID                         : V_MPEG4/ISO/AVC
Duration                         : 1h 0mn
Bit rate                         : 2 300 Kbps
Width                            : 1 024 pixels
Height                           : 576 pixels
Display aspect ratio             : 16:9
Frame rate                       : 25.000 fps
Color space                      : YUV
Chroma subsampling               : 4:2:0
Bit depth                        : 8 bits
Scan type                        : Progressive
Bits/(Pixel*Frame)               : 0.156
Stream size                      : 963 MiB (81%)
Writing library                  : x264 core 123 r2189 35cf912
Encoding settings                : cabac=1 / ref=3 / deblock=1:0:0 / analyse=0x3:0x133 / me=hex / subme=7 / psy=1 / psy_rd=1.00:0.00 / mixed_ref=1 / me_range=16 / chroma_me=1 / trellis=1 / 8x8dct=1 / cqm=0 / deadzone=21,11 / fast_pskip=1 / chroma_qp_offset=-2 / threads=1 / sliced_threads=0 / nr=0 / decimate=1 / interlaced=0 / bluray_compat=0 / constrained_intra=0 / bframes=3 / b_pyramid=2 / b_adapt=1 / b_bias=0 / direct=1 / weightb=1 / open_gop=0 / weightp=2 / keyint=250 / keyint_min=25 / scenecut=40 / intra_refresh=0 / rc_lookahead=40 / rc=abr / mbtree=1 / bitrate=2300 / ratetol=1.0 / qcomp=0.60 / qpmin=10 / qpmax=51 / qpstep=4 / ip_ratio=1.40 / aq=1:1.00
Default                          : Yes
Forced                           : No

Audio #1
ID                               : 2
Format                           : MPEG Audio
Format version                   : Version 1
Format profile                   : Layer 2
Codec ID                         : A_MPEG/L2
Codec ID/Hint                    : MP2
Duration                         : 1h 0mn
Bit rate mode                    : Constant
Bit rate                         : 192 Kbps
Channel(s)                       : 2 channels
Sampling rate                    : 48.0 KHz
Compression mode                 : Lossy
Delay relative to video          : 12ms
Stream size                      : 82.8 MiB (7%)
Language                         : Spanish
Default                          : Yes
Forced                           : No

Audio #2
ID                               : 3
Format                           : MPEG Audio
Format version                   : Version 1
Format profile                   : Layer 2
Codec ID                         : A_MPEG/L2
Codec ID/Hint                    : MP2
Duration                         : 1h 0mn
Bit rate mode                    : Constant
Bit rate                         : 192 Kbps
Channel(s)                       : 2 channels
Sampling rate                    : 48.0 KHz
Compression mode                 : Lossy
Delay relative to video          : 12ms
Stream size                      : 82.8 MiB (7%)
Language                         : qaa
Default                          : Yes
Forced                           : No

Audio #3
ID                               : 4
Format                           : MPEG Audio
Format version                   : Version 1
Format profile                   : Layer 2
Codec ID                         : A_MPEG/L2
Codec ID/Hint                    : MP2
Duration                         : 1h 0mn
Bit rate mode                    : Constant
Bit rate                         : 96.0 Kbps
Channel(s)                       : 1 channel
Sampling rate                    : 48.0 KHz
Compression mode                 : Lossy
Delay relative to video          : 12ms
Stream size                      : 41.4 MiB (3%)
Language                         : sp
Default                          : Yes
Forced                           : No





Capturas:

Imagen
Imagen
Imagen
Imagen

Enlace:

eD2K link 2013 El nacimiento de Charlot (La naissance de Charlot) (Serge Bromberg, Eric Lan...ual by DCINE.mkv [1.17 Gb] 

Avatar de Usuario
DCINE
 
Mensajes: 1582
Registrado: 30 Jul 2016, 20:09
Agradecido : 876 veces
Agradecimiento recibido: 3057 veces

Re: La naissance de Charlot (Serge Bromberg, Eric Lange, 2013) SATRip dual

Mensaje por DCINE » 27 Dic 2016, 13:21

Mañana volveré a reaunudarla

Id pinchando para que se distribuya mejor

Avatar de Usuario
yojimbo
 
Mensajes: 9225
Registrado: 18 Oct 2012, 14:25
Agradecido : 9231 veces
Agradecimiento recibido: 2319 veces

Re: La naissance de Charlot (Serge Bromberg, Eric Lange, 2013) SATRip dual

Mensaje por yojimbo » 27 Dic 2016, 14:33

Muchas gracias, DCINE.

Klinodia
 
Mensajes: 74
Registrado: 15 Jul 2015, 20:20
Agradecido : 1 vez
Agradecimiento recibido: 12 veces

Re: La naissance de Charlot (Serge Bromberg, Eric Lange, 2013) SATRip dual

Mensaje por Klinodia » 27 Dic 2016, 20:15

Pinchada. Muchas gracias.

fruega
 
Mensajes: 441
Registrado: 19 Oct 2012, 20:41
Agradecimiento recibido: 158 veces

Re: La naissance de Charlot (Serge Bromberg, Eric Lange, 2013) SATRip dual

Mensaje por fruega » 27 Dic 2016, 20:30

Muchas gracias.

Avatar de Usuario
Prudencio
 
Mensajes: 4438
Registrado: 16 Oct 2012, 18:46
Agradecido : 4922 veces
Agradecimiento recibido: 1749 veces

Re: La naissance de Charlot (Serge Bromberg, Eric Lange, 2013) SATRip dual

Mensaje por Prudencio » 27 Dic 2016, 20:44

Muchas gracias, DCINE. :hi:

ciberyago
 
Mensajes: 2301
Registrado: 20 Oct 2012, 07:26
Agradecimiento recibido: 355 veces

Re: La naissance de Charlot (Serge Bromberg, Eric Lange, 2013) SATRip dual

Mensaje por ciberyago » 27 Dic 2016, 21:03

Muchas gracias

Avatar de Usuario
sete
 
Mensajes: 4322
Registrado: 22 Dic 2012, 16:10
Agradecido : 197 veces
Agradecimiento recibido: 1269 veces

Re: La naissance de Charlot (Serge Bromberg, Eric Lange, 2013) SATRip dual

Mensaje por sete » 02 Ene 2017, 10:03

Muchas gracias, DCINE.
:hi:
Este mundo está traicionando a la vida.
José Luis Sampedro

Responder

Volver a “Documentales”