San Zimei (Wang Bing, 2012) HDTVRip 720p VOSE

Puntuación
Sin
puntuar

Three Sisters

Moderador: loperena

Reglas del Foro
Norma de los tres años.
Responder
g-cineparagourmets
 
Mensajes: 72
Registrado: 04 Sep 2015, 00:33
Agradecido : 76 veces
Agradecimiento recibido: 340 veces

China San Zimei (Wang Bing, 2012) HDTVRip 720p VOSE

Mensaje por g-cineparagourmets » 28 May 2016, 20:06

Imagen
Ficha Tecnica

Título original: San Zimei
Año: 2012
Director: Wang Bing
Guión: Wang Bing
Genero: Documental
Productora: Chinese Shadows / ALBUM Productions
Duración: 148 min
País: China / Francia
Lenguaje: Mandarín

------------------------------------------------------------

Sinopsis

Wang viaja a la provincia de Yunnan, a un pueblo perdido en las montañas. El frío es rotundo, la aridez una evidencia. Wang se dedica a seguir la vida de tres hermanas: Yingying (10), Zhenzhen (6) y Fenfen (4). Las tres tienen características diferentes; por su edad y por los roles que debe asumir, Yingying es el centro de este filme tan seco como amoroso. El padre de las niñas está prácticamente ausente, pues debe viajar por trabajo a una ciudad cercana; la madre es una figura definitivamente ausente: los abandonó. Las chicas prácticamente viven solas, y que su abuelo y su tía vivan a pocos metros modifica poco la dureza cotidiana y el desamparo. Sobrevivir es un imperativo permanente, y la niñez es un estadio utópico para otro mundo.

http://www.imdb.com/title/tt2361042/?ref_=fn_al_tt_1

------------------------------------------------------------

Autoría

Nombre: San Zimei (Three Sisters) - Wang Bing 2012 - HDTV.h264.AC3.720p - VO.chi Sub.spa.eng.ita - GCPG.mkv
Codec de vídeo: h264
Codec de audio: AC3
Tamaño: 2,18 GB
Duración: 02:27:56
Idioma: Mandarín
Subtítulos: Español, inglés (srt) e italiano (incrustados)

Datos técnicos:
Spoiler:
Format : Matroska
File size : 2.18 GiB
Duration : 2h 27mn
Overall bit rate : 2 113 Kbps
Encoded date : UTC 2016-05-28 17:19:31
Writing application : mkvmerge v6.4.1 ('Omega Point') built on Sep 16 2013 22:05:10
Writing library : libebml v1.3.0 + libmatroska v1.4.1

Video
ID : 1
Format : AVC
Format/Info : Advanced Video Codec
Format profile : High@L4.1
Format settings, CABAC : Yes
Format settings, ReFrames : 7 frames
Codec ID : V_MPEG4/ISO/AVC
Duration : 2h 27mn
Bit rate : 1 879 Kbps
Nominal bit rate : 1 567 Kbps
Width : 1 280 pixels
Height : 720 pixels
Display aspect ratio : 16:9
Frame rate : 25.000 fps
Color space : YUV
Chroma subsampling : 4:2:0
Bit depth : 8 bits
Scan type : Progressive
Bits/(Pixel*Frame) : 0.082
Stream size : 1.94 GiB (89%)
Writing library : x264 core 142 r2431 ac76440
Encoding settings : cabac=1 / ref=8 / deblock=1:-1:-1 / analyse=0x3:0x113 / me=umh / subme=9 / psy=0 / mixed_ref=1 / me_range=32 / chroma_me=1 / trellis=2 / 8x8dct=1 / cqm=2 / deadzone=21,11 / fast_pskip=0 / chroma_qp_offset=0 / threads=18 / lookahead_threads=1 / sliced_threads=0 / nr=0 / decimate=0 / interlaced=0 / bluray_compat=0 / constrained_intra=0 / bframes=3 / b_pyramid=1 / b_adapt=2 / b_bias=0 / direct=3 / weightb=1 / open_gop=0 / weightp=2 / keyint=250 / keyint_min=2 / scenecut=40 / intra_refresh=0 / rc_lookahead=250 / rc=2pass / mbtree=1 / bitrate=1567 / ratetol=1.0 / qcomp=0.70 / qpmin=10 / qpmax=51 / qpstep=4 / cplxblur=20.0 / qblur=0.5 / ip_ratio=1.40 / aq=1:1.00
Language : Chinese

Audio
ID : 2
Format : AC-3
Format/Info : Audio Coding 3
Mode extension : CM (complete main)
Codec ID : A_AC3
Duration : 2h 27mn
Bit rate mode : Constant
Bit rate : 192 Kbps
Channel(s) : 2 channels
Channel positions : Front: L R
Sampling rate : 48.0 KHz
Bit depth : 16 bits
Stream size : 203 MiB (9%)
Title : CHINESE MANDARIN : AC3 2CH 192Kbps
Language : Chinese

Text #1
ID : 3
Format : UTF-8
Codec ID : S_TEXT/UTF8
Codec ID/Info : UTF-8 Plain Text
Language : Spanish

Text #2
ID : 4
Format : UTF-8
Codec ID : S_TEXT/UTF8
Codec ID/Info : UTF-8 Plain Text
Language : English
Los subtítulos en español que vienen en el mkv los hemos traducido de los italianos quemados en el archivo. Se puden encontrar aquí:

San Zimei - subtítulos español

------------------------------------------------------------

Capturas
Imagen
Imagen
Imagen
Imagen
Enlace

eD2K link San Zimei (Three Sisters) - Wang Bing 2012 - HDTV.h264.AC3.720p - VO.chi Sub.spa.eng.ita - GCPG.mkv [2.18 Gb] 

Avatar de Usuario
yojimbo
 
Mensajes: 9224
Registrado: 18 Oct 2012, 14:25
Agradecido : 9230 veces
Agradecimiento recibido: 2310 veces

Re: San Zimei (Wang Bing, 2012) HDTVRip 720p VOSE

Mensaje por yojimbo » 28 May 2016, 21:02

Muchas gracias, g-cineparagourmets.

jail
 
Mensajes: 6264
Registrado: 18 Oct 2012, 15:34
Agradecido : 6856 veces
Agradecimiento recibido: 1973 veces

Re: San Zimei (Wang Bing, 2012) HDTVRip 720p VOSE

Mensaje por jail » 29 May 2016, 10:19

yojimbo escribió:Muchas gracias, g-cineparagourmets.

Avatar de Usuario
Prudencio
 
Mensajes: 4433
Registrado: 16 Oct 2012, 18:46
Agradecido : 4916 veces
Agradecimiento recibido: 1739 veces

Re: San Zimei (Wang Bing, 2012) HDTVRip 720p VOSE

Mensaje por Prudencio » 29 May 2016, 14:20

De este director vi no hace mucho "Man With No Name" (2009), sobre un hombre que vive completamente aislado del mundo.
Me gustó mucho. Y esta parece seguir un poco en esa línea.
Muchas gracias, g-cineparagourmets. :hi:

g-cineparagourmets
 
Mensajes: 72
Registrado: 04 Sep 2015, 00:33
Agradecido : 76 veces
Agradecimiento recibido: 340 veces

Re: San Zimei (Wang Bing, 2012) HDTVRip 720p VOSE

Mensaje por g-cineparagourmets » 29 May 2016, 18:34

Prudencio escribió:De este director vi no hace mucho "Man With No Name" (2009), sobre un hombre que vive completamente aislado del mundo.
Me gustó mucho. Y esta parece seguir un poco en esa línea.
Muchas gracias, g-cineparagourmets. :hi:
A mí me ha gustado mucho esta tambián, sí. Y no perderse la tremenda Feng ai ('Til Madness Do Us Part) En la mula hay enlace a una captura en HD de la RAI:

eD2K link Feng ai (Til madness do us part) - Wang Bing (2013) VOS It.mkv [3.00 Gb] 

Y unos estupendos subtítulos de anikiba245, de Allzine:

http://www.asia-team.net/foros/attachme ... 1423763281

Avatar de Usuario
loperena
 
Mensajes: 2514
Registrado: 02 Oct 2012, 23:01
Agradecido : 275 veces
Agradecimiento recibido: 732 veces

Re: San Zimei (Wang Bing, 2012) HDTVRip 720p VOSE

Mensaje por loperena » 29 May 2016, 18:43

Prudencio escribió:De este director vi no hace mucho "Man With No Name" (2009), sobre un hombre que vive completamente aislado del mundo.
Me gustó mucho. Y esta parece seguir un poco en esa línea.
Muchas gracias, g-cineparagourmets. :hi:
Coincido. Gracias por traer esta joya :hi:

Avatar de Usuario
Bunker
 
Mensajes: 5196
Registrado: 03 Oct 2012, 00:05
Agradecido : 3 veces
Agradecimiento recibido: 1340 veces

Re: San Zimei (Wang Bing, 2012) HDTVRip 720p VOSE

Mensaje por Bunker » 29 May 2016, 18:48

Muchas gracias.

Avatar de Usuario
gudari
 
Mensajes: 493
Registrado: 01 Sep 2015, 16:58
Agradecido : 283 veces
Agradecimiento recibido: 110 veces

Re: San Zimei (Wang Bing, 2012) HDTVRip 720p VOSE

Mensaje por gudari » 29 May 2016, 19:35

Una traducción que agradezco, g-cineparagourmets.
Eskerrik asko!
Prudencio escribió:De este director vi no hace mucho "Man With No Name" (2009), sobre un hombre que vive completamente aislado del mundo.
Me gustó mucho. Y esta parece seguir un poco en esa línea.
Muchas gracias, g-cineparagourmets. :hi:
Un documental imprescindible.

Avatar de Usuario
Bunker
 
Mensajes: 5196
Registrado: 03 Oct 2012, 00:05
Agradecido : 3 veces
Agradecimiento recibido: 1340 veces

Re: San Zimei (Wang Bing, 2012) HDTVRip 720p VOSE

Mensaje por Bunker » 29 May 2016, 19:56

gudari escribió:Una traducción que agradezco, g-cineparagourmets.
Eskerrik asko!
Prudencio escribió:De este director vi no hace mucho "Man With No Name" (2009), sobre un hombre que vive completamente aislado del mundo.
Me gustó mucho. Y esta parece seguir un poco en esa línea.
Muchas gracias, g-cineparagourmets. :hi:
Un documental imprescindible.
No encuentro los subtítulos, ¿sabéis de ellos?

Avatar de Usuario
gudari
 
Mensajes: 493
Registrado: 01 Sep 2015, 16:58
Agradecido : 283 veces
Agradecimiento recibido: 110 veces

Re: San Zimei (Wang Bing, 2012) HDTVRip 720p VOSE

Mensaje por gudari » 29 May 2016, 20:10

Bunker escribió:
gudari escribió:Una traducción que agradezco, g-cineparagourmets.
Eskerrik asko!
Prudencio escribió:De este director vi no hace mucho "Man With No Name" (2009), sobre un hombre que vive completamente aislado del mundo.
Me gustó mucho. Y esta parece seguir un poco en esa línea.
Muchas gracias, g-cineparagourmets. :hi:
Un documental imprescindible.
No encuentro los subtítulos, ¿sabéis de ellos?
El documental sobre este eremita contemporáneo no tiene subtítulos.

Responder

Volver a “Documentales”