Belfast, Maine (Frederick Wiseman, 1999) DVDRip VOSE

Puntuación
Sin
puntuar

Moderador: loperena

Reglas del Foro
Norma de los tres años.
Responder
g-cineparagourmets
 
Mensajes: 72
Registrado: 04 Sep 2015, 00:33
Agradecido : 75 veces
Agradecimiento recibido: 334 veces

Estados Unidos Belfast, Maine (Frederick Wiseman, 1999) DVDRip VOSE

Mensaje por g-cineparagourmets » 26 Mar 2016, 02:56

Imagen
Ficha Tecnica

Título original: Belfast, Maine
Año: 1999
Director: Frederick Wiseman
Guión: Frederick Wiseman
Genero: Documental
Productora: Belfast Inc. / Zipporah Films
Duración: 245 min
País: Estados Unidos
Lenguaje: Inglés

------------------------------------------------------------

Sinopsis

Documental sobre la vida cotidiana en una antigua ciudad portuaria de Nueva Inglaterra, que se centra sobre todo en el trabajo y la vida cultural. Se muestra el trabajo de los pescadores de langostas, los operadores de remolques, los empleados de fábrica, los dueños de negocios, los abogados, médicos, jueces, policías, maestros, trabajadores sociales, enfermeras y ministros. Las actividades culturales incluyen ensayos del coro, clases de baile, lecciones de música y representaciones teatrales.

http://www.imdb.com/title/tt0211942/?ref_=fn_al_tt_1

------------------------------------------------------------

Autoría

Nombre: Belfast, Maine - Frederick Wiseman 1999 - xvid 512x384 - VO.eng Sub.spa - GCPG.mkv
Codec de vídeo: XviD
Codec de audio: mp3
Tamaño: 2,03 GB
Duración: 04:08:50
Idioma: Inglés
Subtítulos: Español

Datos técnicos:
Spoiler:
Complete name : Belfast, Maine - Frederick Wiseman 1999 - xvid 512x384 - VO.eng Sub.spa - GCPG.mkv
Format : Matroska
File size : 2.03 GiB
Duration : 4h 8mn
Overall bit rate : 1 169 Kbps
Encoded date : UTC 2015-11-15 23:29:33
Writing application : mkvmerge v6.4.1 ('Omega Point') built on Sep 16 2013 22:05:10
Writing library : libebml v1.3.0 + libmatroska v1.4.1

Video
ID : 1
Format : MPEG-4 Visual
Format profile : Advanced Simple@L5
Format settings, BVOP : Yes
Format settings, QPel : No
Format settings, GMC : No warppoints
Format settings, Matrix : Custom
Codec ID : XVID
Codec ID/Hint : XviD
Duration : 4h 8mn
Bit rate : 1 044 Kbps
Width : 512 pixels
Height : 384 pixels
Display aspect ratio : 4:3
Frame rate : 23.976 fps
Color space : YUV
Chroma subsampling : 4:2:0
Bit depth : 8 bits
Scan type : Progressive
Bits/(Pixel*Frame) : 0.221
Stream size : 1.81 GiB (89%)
Writing library : XviD 1.2.0.dev47 (UTC 2006-11-01)
Language : English

Audio
ID : 2
Format : MPEG Audio
Format version : Version 1
Format profile : Layer 3
Mode : Joint stereo
Mode extension : MS Stereo
Codec ID : A_MPEG/L3
Codec ID/Hint : MP3
Duration : 1h 25mn
Bit rate mode : Variable
Bit rate : 102 Kbps
Nominal bit rate : 128 Kbps
Channel(s) : 2 channels
Sampling rate : 48.0 KHz
Stream size : 62.5 MiB (3%)
Writing library : LAME3.97
Encoding settings : -m j -V 4 -q 2 -lowpass 17 --abr 128
Language : English

Text
ID : 3
Format : UTF-8
Codec ID : S_TEXT/UTF8
Codec ID/Info : UTF-8 Plain Text
Language : Spanish
Los subtítulos en español que vienen en el mkv se puden encontrar aquí:

Belfast, Maine subtítulos español

------------------------------------------------------------

Capturas
Imagen
Imagen
Imagen
Imagen
Enlace

eD2K link Belfast, Maine - Frederick Wiseman 1999 - xvid 512x384 - VO.eng Sub.spa - GCPG.mkv [2.03 Gb] 

jail
 
Mensajes: 6269
Registrado: 18 Oct 2012, 15:34
Agradecido : 6865 veces
Agradecimiento recibido: 1964 veces

Re: Belfast, Maine (Frederick Wiseman, 1999) DVDRip VOSE

Mensaje por jail » 26 Mar 2016, 09:19

Agradecido, como siempre, GCPG. Parece que has vuelto con fuerzas renovadas.
Nada como estas crónicas de lo cotidiano para captar la esencia de un modus vivendi.

Avatar de Usuario
yojimbo
 
Mensajes: 10308
Registrado: 18 Oct 2012, 14:25
Agradecido : 9476 veces
Agradecimiento recibido: 2599 veces

Re: Belfast, Maine (Frederick Wiseman, 1999) DVDRip VOSE

Mensaje por yojimbo » 26 Mar 2016, 14:14

Muchas gracias, g-cineparagourmets.

Avatar de Usuario
Bunker
 
Mensajes: 5216
Registrado: 03 Oct 2012, 00:05
Agradecido : 3 veces
Agradecimiento recibido: 1224 veces

Re: Belfast, Maine (Frederick Wiseman, 1999) DVDRip VOSE

Mensaje por Bunker » 25 Abr 2016, 14:18

Muchas gracias, ya completo. :up:

Responder

Volver a “Documentales”