Murder in Coweta County (Gary Nelson, 1983) DVDRip Dual

Puntuación
Sin
puntuar

Moderador: loperena

Reglas del Foro
No se admiten publicaciones de películas cuya fecha de producción sea inferior a tres años completos. Norma de los tres años.
Responder
jafonseca
 
Mensajes: 114
Registrado: 15 Abr 2013, 11:57
Agradecido : 65 veces
Agradecimiento recibido: 222 veces

Estados Unidos Murder in Coweta County (Gary Nelson, 1983) DVDRip Dual

Mensaje por jafonseca » 26 May 2014, 19:04

Imagen

Titulo: Murder in Coweta County
Año: 1983
Genero: Crime, Drama
Calificación: 7.5 (285 votes)
Duración: 100 min
Director: Gary Nelson
Reparto: Johnny Cash, Andy Griffith, Earl Hindman, Ed Van Nuys
Argumento:

Código: Seleccionar todo

In 1948, in rural Georgia, Coweta County is watched over by its legendary, indomitable Sheriff Lamar Potts (Johnny Cash). No felony had ever gone unsolved while Sheriff Potts was in charge....
Imdb Url:

Código: Seleccionar todo

http://www.imdb.com/title/tt0085977/

Código: Seleccionar todo

C:\asesinato-cowat\VIDEO_TS\Asesinato.en.Coweta.1983.DVD.x264-HDCL.mkv
  General
    Unique ID : 213549030419528902145985771683555302435 (0xA0A80C1722130ECB819FF1111357DC23)
    Complete name : C:\asesinato-cowat\VIDEO_TS\Asesinato.en.Coweta.1983.DVD.x264-HDCL.mkv
    Format : Matroska
    Format version : Version 2
    File size : 1.46 GiB
    Duration : 1h 35mn
    Overall bit rate : 2 191 Kbps
    Encoded date : UTC 2014-05-26 15:33:31
    Writing application : mkvmerge v5.4.0 ('Piper') built on Mar 10 2012 13:34:39
    Writing library : libebml v1.2.3 + libmatroska v1.3.0
  Video #1
    ID : 1
    Format : AVC
    Format/Info : Advanced Video Codec
    Format profile : High@L4.1
    Format settings, CABAC : Yes
    Format settings, ReFrames : 8 frames
    Codec ID : V_MPEG4/ISO/AVC
    Duration : 1h 35mn
    Bit rate : 1 764 Kbps
    Width : 688 pixels
    Height : 568 pixels
    Display aspect ratio : 4:3
    Original display aspect ratio : 4:3
    Frame rate mode : Constant
    Frame rate : 25.000 fps
    Color space : YUV
    Chroma subsampling : 4:2:0
    Bit depth : 8 bits
    Scan type : Progressive
    Bits/(Pixel*Frame) : 0.181
    Stream size : 1.18 GiB (80%)
    Language : English
    Default : Yes
    Forced : No
    Color primaries : BT.601 PAL
    Transfer characteristics : BT.709
    Matrix coefficients : BT.601
  Audio #2
    ID : 2
    Format : AC-3
    Format/Info : Audio Coding 3
    Mode extension : CM (complete main)
    Format settings, Endianness : Big
    Codec ID : A_AC3
    Duration : 1h 35mn
    Bit rate mode : Constant
    Bit rate : 192 Kbps
    Channel count : 2 channels
    Channel positions : Front: L R
    Sampling rate : 48.0 KHz
    Bit depth : 16 bits
    Compression mode : Lossy
    Delay relative to video : 16ms
    Stream size : 131 MiB (9%)
    Language : Spanish
    Default : Yes
    Forced : No
  Audio #3
    ID : 3
    Format : AC-3
    Format/Info : Audio Coding 3
    Mode extension : CM (complete main)
    Format settings, Endianness : Big
    Codec ID : A_AC3
    Duration : 1h 35mn
    Bit rate mode : Constant
    Bit rate : 192 Kbps
    Channel count : 2 channels
    Channel positions : Front: L R
    Sampling rate : 48.0 KHz
    Bit depth : 16 bits
    Compression mode : Lossy
    Delay relative to video : 16ms
    Stream size : 131 MiB (9%)
    Language : English
    Default : No
    Forced : No
  Menu
    00:00:00.000 : en:Chapter 1
    00:17:46.040 : en:Chapter 2
    00:34:14.880 : en:Chapter 3
    00:53:46.000 : en:Chapter 4
    01:08:53.880 : en:Chapter 5
    01:29:03.320 : en:Chapter 6
caps:

Imagen Imagen
Imagen Imagen
Imagen Imagen
Imagen Imagen

Avatar de Usuario
lluis600
 
Mensajes: 945
Registrado: 16 Oct 2012, 19:39
Agradecido : 1489 veces
Agradecimiento recibido: 17 veces

Re: Murder in Coweta County (Gary Nelson , 1983) DVDrip DUAL

Mensaje por lluis600 » 26 May 2014, 19:49

Gracias por la aportación, jafonseca :genial:

Avatar de Usuario
JGUTII
 
Mensajes: 1627
Registrado: 19 Oct 2012, 05:57
Ubicación: Ciudad del Betis
Agradecido : 5004 veces
Agradecimiento recibido: 117 veces

Re: Murder in Coweta County (Gary Nelson, 1983) DVDRip Dual

Mensaje por JGUTII » 28 May 2014, 22:26

Muchas gracias, jafonseca. :hi:
Imagen

waterloo812
 
Mensajes: 179
Registrado: 23 Nov 2012, 10:10
Agradecimiento recibido: 8 veces

Re: Murder in Coweta County (Gary Nelson, 1983) DVDRip Dual

Mensaje por waterloo812 » 31 May 2014, 10:53

Muchas gracias

Avatar de Usuario
Bunker
 
Mensajes: 5200
Registrado: 03 Oct 2012, 00:05
Agradecido : 3 veces
Agradecimiento recibido: 1343 veces

Re: Murder in Coweta County (Gary Nelson, 1983) DVDRip Dual

Mensaje por Bunker » 21 Sep 2014, 18:31

Me pongo con ella, gracias, jafonseca.

Avatar de Usuario
yojimbo
 
Mensajes: 9295
Registrado: 18 Oct 2012, 14:25
Agradecido : 9313 veces
Agradecimiento recibido: 2358 veces

Re: Murder in Coweta County (Gary Nelson, 1983) DVDRip Dual

Mensaje por yojimbo » 21 Sep 2014, 19:50

Yo también la bajo.

Muchas gracias, jafonseca.

Avatar de Usuario
gatatitania
 
Mensajes: 4651
Registrado: 16 Oct 2012, 18:27
Ubicación: Gatatitania es un gato hambriento, superviviente del planeta gatatitania...
Agradecido : 2424 veces
Agradecimiento recibido: 1402 veces

Re: Murder in Coweta County (Gary Nelson, 1983) DVDRip Dual

Mensaje por gatatitania » 23 Sep 2014, 19:25

¡Gracias, jafonseca! :aplauso: :aplauso: :aplauso:

Avatar de Usuario
juannavarrete
 
Mensajes: 1698
Registrado: 16 Oct 2012, 15:21
Ubicación: En la frontera de la webtern
Agradecido : 9 veces
Agradecimiento recibido: 529 veces

Re: Murder in Coweta County (Gary Nelson, 1983) DVDRip Dual

Mensaje por juannavarrete » 31 Ene 2020, 23:05

Hola familia...Necesito ayuda para bajarme esta peli, está sin fuentes desde hace mucho y no logro nada de nada.
Un abrazo.
Es necesario para su distribución, dejar las descargas obtenidas en el incoming.
(Lo que es bueno para uno, es bueno para todos)

Avatar de Usuario
gatatitania
 
Mensajes: 4651
Registrado: 16 Oct 2012, 18:27
Ubicación: Gatatitania es un gato hambriento, superviviente del planeta gatatitania...
Agradecido : 2424 veces
Agradecimiento recibido: 1402 veces

Re: Murder in Coweta County (Gary Nelson, 1983) DVDRip Dual

Mensaje por gatatitania » 01 Feb 2020, 12:09

Pues esta película consta com que me la bajé en su momento, pero no la encuentro, ni la tengo en la base de datos, así que em sumo a la petición de juannavarrete

:hi:

joramor
 
Mensajes: 135
Registrado: 28 Nov 2012, 20:59
Agradecido : 514 veces
Agradecimiento recibido: 26 veces

Re: Murder in Coweta County (Gary Nelson, 1983) DVDRip Dual

Mensaje por joramor » 01 Feb 2020, 21:02

Moltes gràcies jafonseca. Salu2.

Responder

Volver a “Largos Contemporáneos”