Le soulier de satin (Manoel de Oliveira, 1985) DVDRip VOSI

Puntuación
Sin
puntuar

El zapato de raso

Moderador: loperena

Reglas del Foro
No se admiten publicaciones de películas cuya fecha de producción sea inferior a cinco años completos. Norma de los cinco años.
Responder
Gomorrite
 
Mensajes: 29
Registrado: 18 Ago 2013, 12:09

Francia Le soulier de satin (Manoel de Oliveira, 1985) DVDRip VOSI

Mensaje por Gomorrite » 14 Dic 2013, 15:50

El zapato de raso (Manoel de Oliveira, 1985)

Imagen
Filmaffinity | IMDb

Guión: Manoel de Oliveira, Jacques Parsi (Novela: Paul Claudel)
Música: João Paes
Fotografía: Elso Roque
Reparto: Luís Miguel Cintra, Patricia Barzyk, Anne Cosigny, Jean-Pierre Bernard, Anne Gautier, Franck Oger, Jean Badin, Manuela de Freitas, Henri Serre, Jean-Yves Berteloot, Catherine Jarret, Anny Romand, Isabelle Weingarten, Denise Gence, Marie-Christine Barrault, Maria Barroso, Diogo Dória, Jorge Silva Melo, Paulo Rocha
Productora: Metro e Tal / Les Films du Passage / IPC
Género: Drama | Romance
Duración: 410 minutos
Sinopsis: Durante el Siglo de Oro español, Doña Prouhèze, esposa de un noble, se enamora profundamente de Don Rodrigo. Este último es obligado a abandonar España para marchar a América (donde acabará siendo virrey), mientras el rey le manda a Doña Prouhèze regir la ciudadela de Mogador, en África. Ella le manda una carta a Don Rodrigo, pero éste la lee diez años tarde. Dejando el Nuevo Mundo, Rodrigo llega a Mogador, buscando a Pouhèze.


Fuente en DVD: La vie est belle films associés, PAL

Imagen
Imagen
Imagen
Imagen
Imagen

Código: Seleccionar todo

General
Unique ID : 166494139629746202644488016427022347175 (0x7D419ADB3CAEC8C31EC4C4678508EBA7)
Complete name : Le.soulier.de.satin.AKA.The.Satin.Slipper.Ep1.1985.DVDRip.x264-HANDJOB.mkv
Format : Matroska
Format version : Version 4 / Version 2
File size : 2.15 GiB
Duration : 2h 16mn
Overall bit rate : 2 248 Kbps
Encoded date : UTC 2013-12-14 13:31:47
Writing application : mkvmerge v6.2.0 ('Promised Land') built on Apr 28 2013 18:50:30
Writing library : libebml v1.3.0 + libmatroska v1.4.0

Video
ID : 1
Format : AVC
Format/Info : Advanced Video Codec
Format profile : High@L3.2
Format settings, CABAC : Yes
Format settings, ReFrames : 12 frames
Codec ID : V_MPEG4/ISO/AVC
Duration : 2h 16mn
Bit rate : 1 948 Kbps
Width : 698 pixels
Height : 570 pixels
Display aspect ratio : 4:3
Original display aspect ratio : 4:3
Frame rate mode : Constant
Frame rate : 25.000 fps
Color space : YUV
Chroma subsampling : 4:2:0
Bit depth : 8 bits
Scan type : Progressive
Bits/(Pixel*Frame) : 0.196
Stream size : 1.86 GiB (87%)
Writing library : x264 core 138 r2358 9e941d1
Encoding settings : cabac=1 / ref=12 / deblock=1:-3:-3 / analyse=0x3:0x133 / me=umh / subme=10 / psy=1 / psy_rd=1.00:0.00 / mixed_ref=1 / me_range=32 / chroma_me=1 / trellis=2 / 8x8dct=1 / cqm=0 / deadzone=21,11 / fast_pskip=0 / chroma_qp_offset=-2 / threads=6 / lookahead_threads=1 / sliced_threads=0 / nr=0 / decimate=1 / interlaced=0 / bluray_compat=0 / constrained_intra=0 / bframes=11 / b_pyramid=2 / b_adapt=2 / b_bias=0 / direct=3 / weightb=1 / open_gop=0 / weightp=2 / keyint=250 / keyint_min=25 / scenecut=40 / intra_refresh=0 / rc_lookahead=120 / rc=crf / mbtree=1 / crf=17.7 / qcomp=0.65 / qpmin=0 / qpmax=69 / qpstep=4 / ip_ratio=1.40 / aq=1:0.80
Language : English
Default : Yes
Forced : No
Color primaries : BT.601 PAL
Transfer characteristics : BT.709
Matrix coefficients : BT.601

Audio
ID : 2
Format : AC-3
Format/Info : Audio Coding 3
Mode extension : CM (complete main)
Format settings, Endianness : Big
Codec ID : A_AC3
Duration : 2h 16mn
Bit rate mode : Constant
Bit rate : 256 Kbps
Channel(s) : 2 channels
Channel positions : Front: L R
Sampling rate : 48.0 KHz
Bit depth : 16 bits
Compression mode : Lossy
Stream size : 251 MiB (11%)
Language : French
Default : Yes
Forced : No

Text
ID : 3
Format : UTF-8
Codec ID : S_TEXT/UTF8
Codec ID/Info : UTF-8 Plain Text
Language : English
Default : Yes
Forced : No

Menu
00:00:00.000 : en:Chapter 1
00:16:35.280 : en:Chapter 2
00:30:16.920 : en:Chapter 3
00:45:02.320 : en:Chapter 4
00:59:50.120 : en:Chapter 5
01:14:46.840 : en:Chapter 6
01:33:12.600 : en:Chapter 7
01:44:40.600 : en:Chapter 8
02:02:39.480 : en:Chapter 9

:arrow: eD2K link Le.soulier.de.satin.AKA.The.Satin.Slipper.Ep1.1985.DVDRip.x264-HANDJOB.mkv [2.15 Gb] 
:arrow: eD2K link Le.soulier.de.satin.AKA.The.Satin.Slipper.Ep2.1985.DVDRip.x264-HANDJOB.mkv [2.13 Gb] 
:arrow: eD2K link Le.soulier.de.satin.AKA.The.Satin.Slipper.Ep3.1985.DVDRip.x264-HANDJOB.mkv [1.47 Gb] 


Existen subtítulos en castellano, pero requieren sincronización.
Última edición por Gomorrite el 14 Dic 2013, 21:38, editado 1 vez en total.

jail
 
Mensajes: 6276
Registrado: 18 Oct 2012, 15:34
Agradecido : 6875 veces
Agradecimiento recibido: 1951 veces

Re: Le soulier de satin (Manoel de Oliveira, 1985) DVDRip VOSI

Mensaje por jail » 14 Dic 2013, 16:52

Gracias.

Avatar de Usuario
OrsonHitchcock
 
Mensajes: 389
Registrado: 17 Oct 2012, 13:17
Agradecimiento recibido: 28 veces

Re: Le soulier de satin (Manoel de Oliveira, 1985) DVDRip VOSI

Mensaje por OrsonHitchcock » 15 Dic 2013, 19:59

Muchas gracias Gomorrite.

Responder

Volver a “Largos Contemporáneos”